[TR24][OF][GM] Assassin’s Creed: The Best of Jesper Kyd (by Jesper Kyd) - 2016 (Score)

Ответить на тему
Статистика раздачи
Размер:  1,2 GB   |    Зарегистрирован:  6 месяцев   |    Скачан:  0 раз

Полного источника не было: Никогда

 
   
 
 
Автор Сообщение

star21 ®

Пол: Женский

Стаж: 4 года

Сообщений: 551946

Откуда: Екатеринбург

Создавать темы 15-Май-2019 04:45

[Цитировать]

Assassin’s Creed: The Best of Jesper Kyd Формат записи/Источник записи: [TR24][OF][GM]
Наличие водяных знаков: Нет
Год издания: 2016
Жанр: Score
Издатель (лейбл): Ubisoft Music
Продолжительность: 01:50:08
Наличие сканов в содержимом раздачи: Буклет PDF
Контейнер: FLAC (*.flac)
Тип рипа: tracks
Разрядность: 24/48
Формат: PCM
Количество каналов: 2.0
Источник (релизер): qobuz.com

Треклист:

01. City of Rome
02. Home in Florence
03. Flight over Venice 1
04. Back in Venice
05. Florence Rooftops
06. Flags of Rome
07. The Madam
08. Dreams of Venice
09. Leonardo's Inventions (Extended)
10. Ezio's Family
11. Sanctuary
12. Florence Escape
13. Ezio & Caterina
14. Echoes of the Roman Ruins
15. Florence Tarantella
16. Brotherhood of the Assassins
17. Stealth
18. Venice Rooftops
19. Earth
20. Welcome to Kostantiniyye
21. Countdown
22. The Brotherhood Escapes
23. The Crossroads of the World
24. Byzantium
25. Under Vatican City
26. End Fight
27. VR Room
28. Masyaf Village
29. Jerusalem Hanging
30. Flight Through Jerusalem
31. Damascus Underworld
32. City of Jerusalem
33. Access the Animus

Лог проверки качества

foobar2000 1.4 / Dynamic Range Meter 1.1.1log date: 2019-04-27 18:21:58--------------------------------------------------------------------------------Analyzed: Jesper Kyd / Assassin’s Creed: The Best of Jesper Kyd--------------------------------------------------------------------------------DR         Peak         RMS     Duration Track--------------------------------------------------------------------------------DR9       -0.11 dB   -12.32 dB      5:33 01-City of RomeDR12      -0.11 dB   -17.45 dB      4:30 02-Home in FlorenceDR11      -0.12 dB   -15.05 dB      5:11 03-Flight over Venice 1DR9       -0.11 dB   -11.03 dB      1:34 04-Back in VeniceDR9       -0.11 dB   -10.65 dB      2:21 05-Florence RooftopsDR8       -0.11 dB   -12.16 dB      2:40 06-Flags of RomeDR9       -5.74 dB   -21.09 dB      1:05 07-The MadamDR12      -0.11 dB   -16.11 dB      4:19 08-Dreams of VeniceDR12      -0.11 dB   -15.12 dB      4:35 09-Leonardo's Inventions (Extended)DR9       -1.02 dB   -13.05 dB      3:59 10-Ezio's FamilyDR13      -0.12 dB   -19.00 dB      4:06 11-SanctuaryDR9       -0.11 dB   -10.82 dB      2:47 12-Florence EscapeDR12      -2.16 dB   -17.96 dB      2:15 13-Ezio & CaterinaDR10      -0.79 dB   -18.18 dB      2:48 14-Echoes of the Roman RuinsDR11      -0.24 dB   -14.51 dB      1:54 15-Florence TarantellaDR7       -0.11 dB   -10.61 dB      3:02 16-Brotherhood of the AssassinsDR9       -0.11 dB   -14.20 dB      2:20 17-StealthDR8       -0.11 dB   -11.86 dB      3:21 18-Venice RooftopsDR10      -0.11 dB   -13.41 dB      4:01 19-EarthDR11      -0.11 dB   -15.38 dB      3:32 20-Welcome to KostantiniyyeDR7       -0.11 dB   -10.54 dB      3:25 21-CountdownDR7       -0.11 dB    -8.54 dB      1:59 22-The Brotherhood EscapesDR13      -0.11 dB   -17.56 dB      3:25 23-The Crossroads of the WorldDR10      -0.11 dB   -15.07 dB      3:19 24-ByzantiumDR8       -0.11 dB   -13.19 dB      1:33 25-Under Vatican CityDR9       -0.11 dB   -11.51 dB      2:42 26-End FightDR10      -0.99 dB   -13.46 dB      2:41 27-VR RoomDR9       -0.11 dB   -11.77 dB      2:06 28-Masyaf VillageDR7       -0.11 dB    -9.98 dB      4:06 29-Jerusalem HangingDR9       -0.11 dB   -11.03 dB      3:14 30-Flight Through JerusalemDR9       -0.11 dB   -11.39 dB      2:51 31-Damascus UnderworldDR12      -0.11 dB   -15.96 dB      3:13 32-City of JerusalemDR9       -0.11 dB   -12.09 dB      9:41 33-Access the Animus--------------------------------------------------------------------------------Number of tracks:  33Official DR value: DR10Samplerate:        48000 HzChannels:          2Bits per sample:   24Bitrate:           1734 kbpsCodec:             FLAC================================================================================

Чтобы скачать этот контент, Вам необходимо:
1. Скачать и установить торрент-клиент [клик для Windows], (для мобильного найдите на Play Маркет).
2. Кликнуть по [Скачать]


Внимание.
Если проверка ВЫ НЕ РОБОТ - не работает, значит Вы используете устаревший браузер.
Установите актуальный браузер и повторно кликните по [Скачать]
Безопасность: торрент-клиент разрешён АВ Касперского.

[asmlocator.ru].t636939.torrent 
Торрент: Зарегистрирован [ 2019-05-15 04:45 ] · D8C8D10161071A06809DD4624573ED45854DBEBD

Скачать .torrent

Скачать

14 KB

Статус: проверено
Скачан: 0 раз
Размер: 1,2 GB
terms.php
[Профиль] [ЛС]
Показать сообщения:    
Ответить на тему

Текущее время: 15-Ноя 19:18

Часовой пояс: UTC ± 0



Вы не можете начинать темы
Вы не можете отвечать на сообщения
Вы не можете редактировать свои сообщения
Вы не можете удалять свои сообщения
Вы не можете голосовать в опросах
Вы не можете прикреплять файлы к сообщениям
Вы можете скачивать файлы
Верим фактам, а не вранью Путина! Факт, что Правительство ведёт Россию к истреблению.
Так как численность населения падает, даже не смотря на приток эмигрантов!
Русская нация вымирает и вырождается, смешиваясь с эмигрантами!
Факт, что военных и граждан предприятий заставляют голосовать за партию Единая Россия и Путина
ПОД СТРАХОМ УВОЛЬНЕНИЯ!
Нам не нужно Правительство, блокирующее личную жизнь, интернет, нарушающее сохранность данных.
Все эти действия финансируются за счёт народа!