Враг народа / Ganashatru / An Enemy of the People (Сатьяджит Рей / Satyajit Ray) [1989, Индия, драма, DVDRip] Sub Rus (Лорелия), Eng + original bengali

Ответить на тему
Статистика раздачи
Размер:  1.46 GB   |    Зарегистрирован:  8 месяцев 21 день   |    Скачан:  0 раз

Полного источника не было: Никогда

 
   
 
 
Автор Сообщение

star21 ®

Пол: Женский

Стаж: 4 года 2 месяца

Сообщений: 551946

Откуда: Екатеринбург

Создавать темы 29-Апр-2019 06:20

[Цитировать]

Враг народа / Ganashatru / An Enemy of the People Страна: Индия
Жанр: драма
Год выпуска: 1989
Продолжительность: 01:39:37Перевод: Субтитры - Лорелия
Субтитры: русские, английские
Оригинальная аудиодорожка: бенгальскийРежиссер: Сатьяджит Рей / Satyajit RayВ ролях: Сумитра Чаттерджи, Дхритиман Чаттерджи, Депанкар Де, Рума Гуха Такурта, Мамата Шанкар, Субхенду Чаттерджи, Манодж Митра, Бришма Гухатакурта, Сатья Бандиопадхяй, Ражарам Ягник
Описание: Доктор Ашок Гупта живёт со своей семьёй в маленьком уютном городке в Бенгалии. Он руководит местной больницей. Беспокойство доктора вызывают всё более учащающиеся случаи заболевания желтухой. Переживая из-за возможности начала тотальной эпидемии Ашок Гупта начинает расследовать причины возникновения заболевания и стремится рассказать об этом горожанам и проинформировать местную администрацию, которую возглавляет его младший брат Нишит. Но забота доктора о здоровье горожан сталкивается с интересами местных крупных бизнесменов и представителей власти. Интеллигентному доктору-идеалисту придётся вступить в очень сложную борьбу, рискнув своим положением в обществе и благополучием всей своей семьи ради горожан, которые могут и не оценить его благородных усилий. (с) ЛорелияСэмплКачество видео: DVDRip
Формат видео: AVIВидео: 640x480 (1.33:1), 23.976 fps, XviD build 73 ~1699 kbps avg, 0.23 bit/pixel
Аудио: 48 kHz, AC3 Dolby Digital, 1/0 (C) ch, ~384 kbps
Формат субтитров: softsub (SRT)

Фрагмент субтитров

899
01:01:26,262 --> 01:01:28,457
Я видел как он выходил из своего автомобиля.900
01:01:28,932 --> 01:01:32,299
Биреш, пожалуйста, проводи господина
председателя в свой кабинет.901
01:01:32,502 --> 01:01:34,800
- Господин, пожалуйста пройдите.
- Зачем?902
01:01:35,005 --> 01:01:37,838
Почему я должен уходить?
Я останусь здесь.903
01:01:46,516 --> 01:01:49,610
Неужели это мой младший брат!904
01:01:50,220 --> 01:01:55,783
Решил лично проследить, чтобы
мою статью не опубликовали?905
01:01:56,126 --> 01:01:58,151
Хорошая идея.906
01:01:58,895 --> 01:02:01,022
У тебя ничего не выйдет.907
01:02:02,032 --> 01:02:06,230
Ты может быть не вкурсе,
но я уже был здесь до тебя.908
01:02:06,536 --> 01:02:10,165
Я вернулся только для того, чтобы
внести кое-какие поправки.909
01:02:10,373 --> 01:02:14,070
- Дайте мне, пожалуйста, статью.
- У меня её нет.910
01:02:19,582 --> 01:02:22,312
Джанаварта опубликует мою статью.911
01:02:23,686 --> 01:02:26,382
Нужно предотвратить
распространение эпидемии.

MediaInfo

GeneralComplete name               : H:\An.Enemy.of.the.People.1989.dvdrip_[1.46]_[teko]\An.Enemy.of.the.People.1989.dvdrip_[1.46].aviFormat                      : AVIFormat/Info                 : Audio Video InterleaveFile size                   : 1.46 GiBDuration                    : 1h 39mnOverall bit rate            : 2 093 KbpsWriting application         : VirtualDubMod 1.5.10.3 | www.virtualdub-fr.org || (build 2550/release)Writing library             : VirtualDubMod build 2550/releaseVideoID                          : 0Format                      : MPEG-4 VisualFormat profile              : Advanced Simple@L5Format settings, BVOP       : 2Format settings, QPel       : NoFormat settings, GMC        : No warppointsFormat settings, Matrix     : CustomCodec ID                    : XVIDCodec ID/Hint               : XviDDuration                    : 1h 39mnBit rate                    : 1 699 KbpsWidth                       : 640 pixelsHeight                      : 480 pixelsDisplay aspect ratio        : 4:3Frame rate                  : 23.976 (24000/1001) fpsColor space                 : YUVChroma subsampling          : 4:2:0Bit depth                   : 8 bitsScan type                   : ProgressiveCompression mode            : LossyBits/(Pixel*Frame)          : 0.231Stream size                 : 1.18 GiB (81%)Writing library             : XviD 73AudioID                          : 1Format                      : AC-3Format/Info                 : Audio Coding 3Mode extension              : CM (complete main)Format settings, Endianness : BigCodec ID                    : 2000Duration                    : 1h 39mnBit rate mode               : ConstantBit rate                    : 384 KbpsChannel(s)                  : 1 channelChannel positions           : Front: CSampling rate               : 48.0 KHzFrame rate                  : 31.250 fps (1536 spf)Compression mode            : LossyStream size                 : 274 MiB (18%)Alignment                   : Split accross interleavesInterleave, duration        : 42 ms (1.00 video frame)Interleave, preload duratio : 500 ms
Релиз группы:

Чтобы скачать этот контент, Вам необходимо:
1. Скачать и установить торрент-клиент [клик для Windows], (для мобильного найдите на Play Маркет).
2. Кликнуть по [Скачать]


Внимание.
Если проверка ВЫ НЕ РОБОТ - не работает, значит Вы используете устаревший браузер.
Установите актуальный браузер и повторно кликните по [Скачать]
Безопасность: торрент-клиент разрешён АВ Касперского.

[asmlocator.ru].t633665.torrent 
Торрент: Зарегистрирован [ 2019-04-29 06:20 ] · CF6E48AC0EBE758DBCB558DC334DD5C6B460CB6E

Скачать .torrent

Скачать

15 KB

Статус: проверено
Скачан: 0 раз
Размер: 1.46 GB
terms.php
[Профиль] [ЛС]
Показать сообщения:    
Ответить на тему

Текущее время: 20-Янв 10:24

Часовой пояс: UTC ± 0



Вы не можете начинать темы
Вы не можете отвечать на сообщения
Вы не можете редактировать свои сообщения
Вы не можете удалять свои сообщения
Вы не можете голосовать в опросах
Вы не можете прикреплять файлы к сообщениям
Вы можете скачивать файлы
Верим фактам, а не вранью Путина! Факт, что Правительство ведёт Россию к истреблению.
Так как численность населения падает, даже не смотря на приток эмигрантов!
Русская нация вымирает и вырождается, смешиваясь с эмигрантами!
Факт, что военных и граждан предприятий заставляют голосовать за партию Единая Россия и Путина
ПОД СТРАХОМ УВОЛЬНЕНИЯ!
Нам не нужно Правительство, блокирующее личную жизнь, интернет, нарушающее сохранность данных.
Все эти действия финансируются за счёт народа!