[TR24][OF] Various Artists - Tina: The Tina Turner Musical (Original London Cast Recording) - 2019 (Soundtracks)

Reply to topic
DL-List and Torrent activity
Size:  880 MB   |    Registered:  3 months 28 days   |    Completed:  1 time

Seeder not seen: 26 minutes

 
   
 
 
Author Message

star21 ®

Gender: Female

Longevity: 3 years 9 months

Posts: 551989

Location: Екатеринбург

Post 25-Apr-2019 10:05

[Quote]

Various Artists - Tina: The Tina Turner Musical (Original London Cast Recording) Формат записи/Источник записи: [TR24][OF]
Наличие водяных знаков: Нет
Год издания/переиздания диска: 2019
Жанр: Soundtracks
Издатель (лейбл): Ghostlight Records
Продолжительность: 01:10:02
Наличие сканов в содержимом раздачи: Нет
Источник: ИнтернетТреклист:01. Etherland (0:43)
02. Nutbush City Limits (2:21)
03. Don't Turn Around (2:57)
04. Shake a Tailfeather (2:15)
05. The Hunter (2:31)
06. Matchbox (1:35)
07. It's Gonna Work Out Fine (1:39)
08. A Fool in Love (2:35)
09. Let's Stay Together (3:18)
10. Better Be Good to Me (2:44)
11. Higher (4:38)
12. River Deep - Mountain High (3:29)
13. Be Tender with Me Baby (2:26)
14. Proud Mary (4:25)
15. I Don't Wanna Fight (3:00)
16. Private Dancer (3:13)
17. Disco Inferno (2:33)
18. Open Arms (3:12)
19. I Can't Stand the Rain (3:05)
20. Tonight (2:36)
21. What's Love Got to Do with It (3:24)
22. We Don't Need Another Hero (3:47)
23. (Simply) The Best (4:08)
24. Finale: Nutbush City Limits / Proud Mary (3:27)Контейнер: FLAC (*.flac)
Тип рипа: tracksРазрядность: 24/48 (1-11, 13-24), 24/44.1 (12)
Формат: WAV (flac.ape.wv)
Количество каналов: 2.0

Лог проверки качества

foobar2000 1.4.2 / Замер динамического диапазона (DR) 1.1.1Дата отчёта:  2019-03-29 23:02:30--------------------------------------------------------------------------------Анализ:   Adrienne Warren & Tina: The Tina Turner Musical Original London Company / Tina: The Tina Turner Musical (Original London Cast Recording) (1-6)          Adrienne Warren, Aisha Jawando, Pérola Congo, Sia Kiwa & Tsemaye Bob-Egbe / Tina: The Tina Turner Musical (Original London Cast Recording) (7)          Adrienne Warren, Claudia Elie & Tina: The Tina Turner Musical Original London Company / Tina: The Tina Turner Musical (Original London Cast Recording) (8)          Adrienne Warren, Kayleigh McKnight, Pérola Congo, Baker Mukasa & Jammy Kasongo / Tina: The Tina Turner Musical (Original London Cast Recording) (9)          Adrienne Warren, Kobna Holdbrook-Smith & Tina: The Tina Turner Musical Original London Company / Tina: The Tina Turner Musical (Original London Cast Recording) (10)          Adrienne Warren, Kobna Holdbrook-Smith, Aisha Jawando, Pérola Congo & Sia Kiwa / Tina: The Tina Turner Musical (Original London Cast Recording) (11)          Adrienne Warren, Lorna Gayle & Natey Jones / Tina: The Tina Turner Musical (Original London Cast Recording) (12)          Adrienne Warren, Lorna Gayle & Tina: The Tina Turner Musical Original London Company / Tina: The Tina Turner Musical (Original London Cast Recording) (13)          Adrienne Warren, Pérola Congo, Sia Kiwa & Tsemaye Bob-Egbe / Tina: The Tina Turner Musical (Original London Cast Recording) (14)          Adrienne Warren / Tina: The Tina Turner Musical (Original London Cast Recording) (15)          Aisha Jawando, Adrienne Warren, Keisher Downie, Pérola Congo, Sia Kiwa, Tina: The Tina Turner Musical Original London Company & Tsemaye Bob-Egbe / Tina: The Tina Turner Musical (Original London Cast Recording) (16)          Claudia Elie, Lorna Gayle, Adrienne Warren & Ryan O'Donnell / Tina: The Tina Turner Musical (Original London Cast Recording) (17)          Francesca Jackson, Adrienne Warren & Tina: The Tina Turner Musical Original London Company / Tina: The Tina Turner Musical (Original London Cast Recording) (18)          Kobna Holdbrook-Smith & Baker Mukasa / Tina: The Tina Turner Musical (Original London Cast Recording) (19)          Kobna Holdbrook-Smith, Adrienne Warren & Tina: The Tina Turner Musical Original London Company / Tina: The Tina Turner Musical (Original London Cast Recording) (20)          Madeline Appiah, Kobna Holdbrook-Smith, Adrienne Warren, Aisha Jawando, Pérola Congo, Tsemaye Bob-Egbe & Sia Kiwa / Tina: The Tina Turner Musical (Original London Cast Recording) (21)          Natey Jones & Adrienne Warren / Tina: The Tina Turner Musical (Original London Cast Recording) (22)          Natey Jones, Claudia Elie & Tina: The Tina Turner Musical Original London Company / Tina: The Tina Turner Musical (Original London Cast Recording) (23)--------------------------------------------------------------------------------DR         Пики         RMS           Продолжительность трека--------------------------------------------------------------------------------DR7       -0.09 дБ   -10.24 дБ      2:44 10-Better Be Good to MeDR6        0.00 дБ   -11.48 дБ      2:26 13-Be Tender with Me BabyDR10      -0.12 дБ   -12.62 дБ      3:00 15-I Don't Wanna FightDR8        0.00 дБ    -9.58 дБ      2:33 17-Disco InfernoDR8       -0.21 дБ   -11.62 дБ      3:47 22-We Don't Need Another HeroDR7        0.00 дБ    -8.21 дБ      4:08 23-(Simply) The BestDR9        0.00 дБ   -10.38 дБ      4:38 11-HigherDR6        0.00 дБ    -7.18 дБ      3:27 24-Finale: Nutbush City Limits / Proud MaryDR8        0.00 дБ    -9.16 дБ      3:24 21-What's Love Got to Do with ItDR8        0.00 дБ   -10.36 дБ      3:05 19-I Can't Stand the RainDR7        0.00 дБ    -9.37 дБ      4:25 14-Proud MaryDR7       -0.33 дБ    -9.02 дБ      0:43 01-EtherlandDR8        0.00 дБ   -10.55 дБ      2:57 03-Don't Turn AroundDR9       -0.07 дБ   -10.46 дБ      2:35 08-A Fool in LoveDR10       0.00 дБ   -11.81 дБ      3:13 16-Private DancerDR9       -0.39 дБ   -12.21 дБ      2:15 04-Shake a TailfeatherDR10       0.00 дБ   -14.37 дБ      2:36 20-TonightDR11       0.00 дБ   -13.99 дБ      3:12 18-Open ArmsDR6        0.00 дБ    -7.41 дБ      2:31 05-The HunterDR8       -0.06 дБ    -9.80 дБ      1:35 06-MatchboxDR8        0.00 дБ    -9.91 дБ      1:39 07-It's Gonna Work Out FineDR9       -0.37 дБ   -12.60 дБ      3:18 09-Let's Stay TogetherDR12      -0.61 дБ   -17.17 дБ      2:21 02-Nutbush City Limits--------------------------------------------------------------------------------Количество треков: 23Реальные значения DR: DR8Частота:   48000 ГцКаналов:   2Разрядность:   24Битрейт:   1698 кбит/сКодек:   FLAC================================================================================foobar2000 1.4.2 / Замер динамического диапазона (DR) 1.1.1Дата отчёта:  2019-03-29 23:10:18--------------------------------------------------------------------------------Статистика для:  12-River Deep - Mountain HighКоличество сэмплов: 9225132Продолжительность: 3:29--------------------------------------------------------------------------------           Левый             ПравыйПики:                0.00 дБ     ---      0.00 дБСредний RMS:              -7.50 дБ     ---     -7.70 дБDR канала:               5.51 дБ     ---      5.74 дБ--------------------------------------------------------------------------------Реальные значения DR: DR6Частота:   44100 ГцКаналов:   2Разрядность:   24Битрейт:   1721 кбит/сКодек:   FLAC================================================================================

To download the content you need:
1. Download and install torrent client [for Windows] or for mobile system
2. Click on [Download]
Attention.
If the test YOU are NOT a ROBOT - does not work, then You are using an outdated browser.
Install the current browser and click on [Download]
Security: torrent client is allowed by Kaspersky.

[asmlocator.ru].t632071.torrent 
Torrent: Registered [ 2019-04-25 10:05 ] · 89EEE54A19CB6B4BA1C01C73807D07B3335EE5FA

Download .torrent

Download

19 KB

Status: checked
Completed: 1 times
Size: 880 MB
terms.php
[Profile] [PM]
Display posts:    
Reply to topic

Current time is: 23-Aug 16:46

All times are UTC ± 0



You cannot post new topics in this forum
You cannot reply to topics in this forum
You cannot edit your posts in this forum
You cannot delete your posts in this forum
You cannot vote in polls in this forum
You cannot attach files in this forum
You can download files in this forum