[TR24][OF][FM] Celebrating John Williams (by Los Angeles Philharmonic, Gustavo Dudamel) - 2019 (Score)

Reply to topic
DL-List and Torrent activity
Size:  1.91 GB   |    Registered:  3 months 27 days   |    Completed:  0 times

Seeder not seen: Never

 
   
 
 
Author Message

star21 ®

Gender: Female

Longevity: 3 years 9 months

Posts: 551989

Location: Екатеринбург

Post 25-Apr-2019 01:25

[Quote]

Los Angeles Philharmonic - Celebrating John Williams Формат записи/Источник записи: [TR24][OF]
Наличие водяных знаков: Нет
Год издания: 2019
Жанр: Score
Издатель (лейбл): Deutsche Grammophon
Продолжительность: 01:35:17
Наличие сканов в содержимом раздачи: Буклет PDF
Контейнер: FLAC (*.flac)
Тип рипа: tracks
Разрядность: 24/96
Формат: PCM
Количество каналов: 2.0
Источник (релизер): prestomusic.comТреклист
01. Olympic Fanfare and Theme (from the 1984 Olympic Games) (04:01)
02. Suite (from "Close Encounters of the Third Kind") (08:27)
03. Out to Sea / Shark Cage Fugue (from "Jaws") (04:23)
04. Hedwig's Theme (from "Harry Potter and the Philosopher's Stone") (04:58)
05. Fawkes the Phoenix (from "Harry Potter and the Chamber of Secrets") (03:42)
06. Harry’s Wondrous World (from "Harry Potter and the Philosopher's Stone") (04:40)
07. Theme (from "Schindler's List") (03:41)
08. Adventures on Earth (from "E.T. The Extra-Terrestrial") (10:25)
09. Flight to Neverland (from "Hook") (04:48)
10. Theme (from "Jurassic Park") (05:56)
11. Scherzo for Motorcycle and Orchestra (from "Indiana Jones and the Last Crusade") (03:07)
12. Marion's Theme (from "Raiders of the Lost Ark") (04:11)
13. Raiders March (from "Raiders of the Lost Ark") (05:08)
14. Sayuri's Theme (from "Memoirs of a Geisha") (04:16)
15. Imperial March: Darth Vader's Theme (from "Star Wars Episode V: The Empire Strikes Back") (03:03)
16. Yoda's Theme (from "Star Wars Episode V: The Empire Strikes Back") (03:36)
17. Throne Room and Finale (from "Star Wars Episode IV: A New Hope") (07:57)
18. Adagio (from "Star Wars: The Force Awakens") (04:33)
19. Superman March (From "Superman") (04:25)Simone Porter, violin
Robert deMaine, cello
Los Angeles Philharmonic,
Gustavo Dudamel, conductor
Live At Walt Disney Concert Hall, Los Angeles, 2019

Лог проверки качества

foobar2000 1.4 / Dynamic Range Meter 1.1.1log date: 2019-03-15 06:36:55--------------------------------------------------------------------------------Analyzed: Los Angeles Philharmonic / Celebrating John Williams (1-17)          Robert deMaine / Celebrating John Williams (18)          Simone Porter / Celebrating John Williams (19)--------------------------------------------------------------------------------DR         Peak         RMS     Duration Track--------------------------------------------------------------------------------DR10      -0.55 dB   -13.78 dB      4:02 01-Olympic Fanfare And ThemeDR11      -0.54 dB   -16.99 dB      8:28 02-ExcerptsDR12      -0.62 dB   -16.69 dB      4:24 03-Out To Sea / The Shark Cage FugueDR12      -0.55 dB   -17.35 dB      4:58 04-Hedwig's ThemeDR11      -3.53 dB   -18.59 dB      3:42 05-Fawkes The PhoenixDR11      -0.58 dB   -15.36 dB      4:41 06-Harry's Wondrous WorldDR11      -0.55 dB   -15.67 dB     10:25 08-Adventures On EarthDR11      -0.55 dB   -14.47 dB      4:49 09-The Flight To NeverlandDR10      -0.60 dB   -14.31 dB      5:57 10-ThemeDR12      -0.54 dB   -15.48 dB      3:07 11-Scherzo For Motorcycle And OrchestraDR11      -3.38 dB   -20.34 dB      4:11 12-Marion's ThemeDR10      -0.57 dB   -14.51 dB      5:08 13-The Raiders MarchDR10      -0.56 dB   -13.65 dB      3:03 15-The Imperial MarchDR11      -1.71 dB   -19.41 dB      3:36 16-Yoda's ThemeDR10      -0.60 dB   -13.56 dB      7:58 17-Throne Room And FinaleDR13      -7.59 dB   -25.81 dB      4:34 18-AdagioDR10      -0.55 dB   -13.22 dB      4:26 19-Superman MarchDR12      -7.85 dB   -23.97 dB      4:17 14-Sayuri's ThemeDR13     -11.57 dB   -30.05 dB      3:41 07-Theme--------------------------------------------------------------------------------Number of tracks:  19Official DR value: DR11Samplerate:        96000 HzChannels:          2Bits per sample:   24Bitrate:           2651 kbpsCodec:             FLAC================================================================================

Об альбоме (сборнике)

The prestigious Los Angeles Philharmonic, led by Music & Artistic Director Gustavo Dudamel, and Deutsche Grammophon, the world’s leading classical music label, are set to extend their long history of making music together. They will now build on a relationship that has already produced benchmark recordings of works by Mahler and John Adams, among others, and seen orchestra and conductor play key roles in the visionary “DG Concerts” initiative, which allowed music-lovers rapid virtual access to live LA Phil concerts.Upcoming releases on Deutsche Grammophon will include a tribute to multi-award-winning film composer John Williams and, as the LA Phil marks its centenary season, a commemorative limited-edition box set entitled LA PHIL – 100 YEARS, which will encompass many of the most significant performances given by the orchestra over the decades. As a prelude to this renewed cooperation, in November 2018 DG released the LA Phil and Dudamel’s new reading of the complete score of Tchaikovsky’s ballet The Nutcracker to widespread acclaim, with Gramophone hailing the orchestra’s “fabulous” playing and The New York Times calling the album a “joyously vibrant recording”.Dr. Clemens Trautmann, President of Deutsche Grammophon, welcomes the new association between the orchestra, its Music & Artistic Director, and the label. “We’re delighted to be resuming our collaboration with Gustavo Dudamel and the LA Phil. The centenary is a great occasion to showcase both the ensemble’s great artistic vision and its innovative approach to programming and outreach. We share the ambition to make Gustavo and the LA Phil’s latest productions heard by the widest global audience, thereby adding to the orchestra’s already rich recorded legacy with Deutsche Grammophon.”Set for worldwide release next month, is a double album featuring some of the best-known works of John Williams, the foremost composer in the film world today. In late January 2019, Gustavo Dudamel conducted four “Celebrating John Williams” concerts at Walt Disney Concert Hall, presenting a selection of unforgettable themes from the much-loved scores for films such as Star Wars, Jurassic Park, Harry Potter, and Indiana Jones. Celebrating John Williams will be released on March 15 via Deutsche Grammophon/Universal Music Canada, the country’s leading music company.“What an honor to collaborate with my friend and mentor John Williams,” said Dudamel. “His compositions are iconic, his talent is legendary, and his artistic generosity is heart-warming.”Reviewing the January 24 event, the Los Angeles Times not only called the playing “spectacular” but emphasized Dudamel’s ability to bring out a unique “sonic grandeur” in these well-known works, and to convey Williams’ “magical sense of writing music that sends a message – a message of hope and glory and wonder and joy.” All in all, what he and the LA Phil produced on the night was, according to the same review, “unlike any Williams music … heard before.”2019 marks Gustavo Dudamel’s 10th anniversary as Music & Artistic Director of the Los Angeles Philharmonic. Having first worked with Deutsche Grammophon in 2005, he has since led the orchestra in a series of highly acclaimed Yellow Label recordings of music by composers including Brahms – a Grammy Award-winning account of the Fourth Symphony – Bartók, Bernstein, and John Adams, whose Passion oratorio, The Gospel According to the Other Mary, was commissioned and premiered by the LA Phil. Dudamel’s career has its roots in the famous Venezuelan musical education program, El Sistema, and he has been Music Director of Venezuela’s Simón Bolívar Symphony Orchestra since 1999. His rich DG catalogue also reveals his deep bond with these players, and features compelling readings of works by Beethoven, Tchaikovsky, and Mahler, among others.

To download the content you need:
1. Download and install torrent client [for Windows] or for mobile system
2. Click on [Download]
Attention.
If the test YOU are NOT a ROBOT - does not work, then You are using an outdated browser.
Install the current browser and click on [Download]
Security: torrent client is allowed by Kaspersky.

[asmlocator.ru].t631865.torrent 
Torrent: Registered [ 2019-04-25 01:25 ] · 69AE52CAB36F282FFDD1B29710DC1C60FB297019

Download .torrent

Download

21 KB

Status: checked
Completed: 0 times
Size: 1.91 GB
terms.php
[Profile] [PM]
Display posts:    
Reply to topic

Current time is: 22-Aug 08:20

All times are UTC ± 0



You cannot post new topics in this forum
You cannot reply to topics in this forum
You cannot edit your posts in this forum
You cannot delete your posts in this forum
You cannot vote in polls in this forum
You cannot attach files in this forum
You can download files in this forum