[TR24][OF][FM] Rupert Gregson-Williams - Аквамен / Aquaman - 2018 (Score)

Reply to topic
DL-List and Torrent activity
Size:  672 MB   |    Registered:  3 months 28 days   |    Completed:  0 times

Seeder not seen: Never

 
   
 
 
Author Message

star21 ®

Gender: Female

Longevity: 3 years 9 months

Posts: 551989

Location: Екатеринбург

Post 25-Apr-2019 01:25

[Quote]

Rupert Gregson-Williams / Аквамен / Aquaman Формат записи/Источник записи: [TR24][OF]
Наличие водяных знаков: Нет
Год издания/переиздания диска: 2018
Жанр: Score
Издатель (лейбл): WaterTower Music
Продолжительность: 01:05:02
Наличие сканов в содержимом раздачи: Только обложка альбомаТреклист:
01. Skylar Grey - Everything I Need (Film Version) (3:16)
02. Rupert Gregson-Williams - Arthur (4:41)
03. Rupert Gregson-Williams - Kingdom of Atlantis (3:26)
04. Rupert Gregson-Williams - It Wasn't Meant to Be (3:22)
05. Rupert Gregson-Williams - Atlantean Soldiers (3:35)
06. Rupert Gregson-Williams - What Does That Even Mean? (3:24)
07. Rupert Gregson-Williams - The Legend of Atlan (1:57)
08. Rupert Gregson-Williams - Swimming Lessons (3:03)
09. Rupert Gregson-Williams - The Black Manta (2:49)
10. Rupert Gregson-Williams - What Could Be Greater Than a King? (5:23)
11. Rupert Gregson-Williams - Permission to Come Aboard (2:16)
12. Rupert Gregson-Williams - Suited and Booted (4:25)
13. Rupert Gregson-Williams - Between Land and Sea (2:55)
14. Rupert Gregson-Williams - He Commands the Sea (3:34)
15. Rupert Gregson-Williams - Map in a Bottle (2:16)
16. Rupert Gregson-Williams - The Ring of Fire (4:58)
17. Rupert Gregson-Williams - Reunited (1:32)
18. Skylar Grey - Everything I Need (3:21)
19. Pitbull, Rhea - Ocean to Ocean (2:25)
20. Joseph Bishara - Trench Engaged (From Kingdom of the Trench) (2:30)Контейнер: FLAC (*.flac)
Тип рипа: tracksРазрядность: 24/44,1
Формат: PCM
Количество каналов: 2.0

Лог проверки качества

foobar2000 1.3.3 (cdpos.biz) / Замер динамического диапазона (DR) 1.1.1Дата отчёта:  2019-03-16 10:31:26--------------------------------------------------------------------------------Анализ:   Joseph Bishara / Aquaman (Original Motion Picture Soundtrack) (1)          Pitbull / Aquaman (Original Motion Picture Soundtrack) (2)          Rupert Gregson-Williams / Aquaman (Original Motion Picture Soundtrack) (3-18)          Skylar Grey / Aquaman (Original Motion Picture Soundtrack) (19-20)--------------------------------------------------------------------------------DR         Пики         RMS           Продолжительность трека--------------------------------------------------------------------------------DR7       -0.20 дБ   -11.21 дБ      2:30 20-Trench EngagedDR5       -1.60 дБ    -7.45 дБ      2:25 19-Ocean To Ocean (feat. Rhea)DR8       -0.20 дБ   -11.62 дБ      4:41 02-ArthurDR10      -0.20 дБ   -14.51 дБ      3:26 03-Kingdom Of AtlantisDR10      -0.20 дБ   -15.99 дБ      3:22 04-It Wasn't Meant To BeDR7       -0.10 дБ   -11.82 дБ      3:35 05-Atlantean SoldiersDR9       -0.20 дБ   -13.77 дБ      3:24 06-What Does That Even Mean?DR9       -0.10 дБ   -15.03 дБ      1:57 07-The Legend Of AtlanDR9       -0.20 дБ   -14.11 дБ      3:03 08-Swimming LessonsDR6       -0.20 дБ   -10.51 дБ      2:49 09-The Black MantaDR8        0.00 дБ   -13.09 дБ      5:23 10-What Could Be Greater Than A King?DR9       -0.20 дБ   -12.59 дБ      2:16 11-Permission To Come AboardDR6       -0.20 дБ    -8.64 дБ      4:25 12-Suited And BootedDR9       -0.20 дБ   -16.07 дБ      2:55 13-Between Land And SeaDR6        0.00 дБ    -9.14 дБ      3:34 14-He Commands The SeaDR11      -0.20 дБ   -17.79 дБ      2:16 15-Map In A BottleDR8       -0.20 дБ   -11.24 дБ      4:58 16-The Ring Of FireDR7        0.00 дБ   -10.62 дБ      1:32 17-ReunitedDR6       -1.10 дБ   -10.38 дБ      3:16 01-Everything I NeedDR9       -1.10 дБ   -12.76 дБ      3:21 18-Everything I Need--------------------------------------------------------------------------------Количество треков: 20Реальные значения DR: DR8Частота:  44100 ГцКаналов:  2Разрядность:   24Битрейт:  1492 кбит/сКодек:   FLAC================================================================================
Источник (релизер): qobuz

To download the content you need:
1. Download and install torrent client [for Windows] or for mobile system
2. Click on [Download]
Attention.
If the test YOU are NOT a ROBOT - does not work, then You are using an outdated browser.
Install the current browser and click on [Download]
Security: torrent client is allowed by Kaspersky.

[asmlocator.ru].t631863.torrent 
Torrent: Registered [ 2019-04-25 01:25 ] · 63BB4B5E7ADA338980450305A0B289269C4CEC01

Download .torrent

Download

15 KB

Status: checked
Completed: 0 times
Size: 672 MB
terms.php
[Profile] [PM]
Display posts:    
Reply to topic

Current time is: 23-Aug 16:45

All times are UTC ± 0



You cannot post new topics in this forum
You cannot reply to topics in this forum
You cannot edit your posts in this forum
You cannot delete your posts in this forum
You cannot vote in polls in this forum
You cannot attach files in this forum
You can download files in this forum