Русский крест (Галина Царева) [2006, патриотический, DVDRip]

Ответить на тему
Статистика раздачи
Размер:  700 MB   |    Зарегистрирован:  9 месяцев 10 дней   |    Скачан:  0 раз

Полного источника не было: Никогда

 
   
 
 
Автор Сообщение

star21 ®

Пол: Женский

Стаж: 4 года 2 месяца

Сообщений: 551946

Откуда: Екатеринбург

Создавать темы 19-Апр-2019 10:45

[Цитировать]

Русский крест Дата/Год выпуска: 2006
Страна: Россия
Жанр: патриотический
Продолжительность: 01:30:06
Перевод: Не требуется
Русские субтитры: нет
Оригинальная аудиодорожка: русский
Режиссер: Галина ЦареваОписание: Россия - богатейшая страна в мире. Почему же мы находимся сейчас на грани нищеты? В чем причина тех трудностей, которые мы, как народ, сейчас испытываем? Целостная некогда Родина распадается на разрозненные части. Потеряна вера, культура, экономическое единство. Удивляться надо не тому, что жить стало хуже, а тому, что мы вообще живы при всех-то наших «программах полового воспитания» в школах, алкоголизме, проституции, наркомании, гомосексуализме и прочих мерзостях. Наибольшей степени депопуляции подвергается государствообразующий этнос страны - русские. Примечательно, что распад СССР произошел как раз в те годы, когда доля славян в численности населения сократилась и составила чуть больше половины населения страны. Та же перспектива в ближайшем времени ожидает и Российскую Федерацию.качество: DVDRip
формат: AVI
Видео: MPEG4, DivX 5, 512x384 (4:3), 25.000 fps, 963 Kbps (0.196 bit/pixel)
Аудио: MP3, 48.0 KHz, 2 ch, 32.0 Kbps, CBR

MediaInfo

GeneralComplete name                            : C:\Users\User\Downloads\Русский крест.aviFormat                                   : AVIFormat/Info                              : Audio Video InterleaveFile size                                : 700 MiBDuration                                 : 1h 30mnOverall bit rate                         : 1 086 KbpsVideoID                                       : 0Format                                   : MPEG-4 VisualFormat settings, BVOP                    : 1Format settings, QPel                    : NoFormat settings, GMC                     : No warppointsFormat settings, Matrix                  : Default (H.263)Codec ID                                 : DX50Codec ID/Hint                            : DivX 5Duration                                 : 1h 30mnBit rate                                 : 963 KbpsWidth                                    : 512 pixelsHeight                                   : 384 pixelsDisplay aspect ratio                     : 4:3Frame rate                               : 25.000 fpsColor space                              : YUVChroma subsampling                       : 4:2:0Bit depth                                : 8 bitsScan type                                : ProgressiveCompression mode                         : LossyBits/(Pixel*Frame)                       : 0.196Stream size                              : 620 MiB (89%)Writing library                          : DivX 6.8.0 (UTC 2007-12-04)AudioID                                       : 1Format                                   : MPEG AudioFormat version                           : Version 1Format profile                           : Layer 3Mode                                     : Joint stereoMode extension                           : MS StereoCodec ID                                 : 55Codec ID/Hint                            : MP3Duration                                 : 1h 30mnBit rate mode                            : ConstantBit rate                                 : 32.0 KbpsChannel(s)                               : 2 channelsSampling rate                            : 48.0 KHzCompression mode                         : LossyStream size                              : 71.2 MiB (10%)Alignment                                : Aligned on interleavesInterleave, duration                     : 24 ms (0.60 video frame)Interleave, preload duration             : 146 msWriting library                          : LAME3.97

Скриншоты

Чтобы скачать этот контент, Вам необходимо:
1. Скачать и установить торрент-клиент [клик для Windows], (для мобильного найдите на Play Маркет).
2. Кликнуть по [Скачать]


Внимание.
Если проверка ВЫ НЕ РОБОТ - не работает, значит Вы используете устаревший браузер.
Установите актуальный браузер и повторно кликните по [Скачать]
Безопасность: торрент-клиент разрешён АВ Касперского.

[asmlocator.ru].t630095.torrent 
Торрент: Зарегистрирован [ 2019-04-19 10:45 ] · 680055B61B91614C94BB26A70BFE409232FA08DE

Скачать .torrent

Скачать

14 KB

Статус: проверено
Скачан: 0 раз
Размер: 700 MB
terms.php
[Профиль] [ЛС]
Показать сообщения:    
Ответить на тему

Текущее время: 29-Янв 19:13

Часовой пояс: UTC ± 0



Вы не можете начинать темы
Вы не можете отвечать на сообщения
Вы не можете редактировать свои сообщения
Вы не можете удалять свои сообщения
Вы не можете голосовать в опросах
Вы не можете прикреплять файлы к сообщениям
Вы можете скачивать файлы
Верим фактам, а не вранью Путина! Факт, что Правительство ведёт Россию к истреблению.
Так как численность населения падает, даже не смотря на приток эмигрантов!
Русская нация вымирает и вырождается, смешиваясь с эмигрантами!
Факт, что военных и граждан предприятий заставляют голосовать за партию Единая Россия и Путина
ПОД СТРАХОМ УВОЛЬНЕНИЯ!
Нам не нужно Правительство, блокирующее личную жизнь, интернет, нарушающее сохранность данных.
Все эти действия финансируются за счёт народа!