Секреты Запретного города в Китае / Secrets of China\'s Forbidden City (Иэн Бремнер / Ian Bremner) [2017, Великобритания, Документальный, архитектура, история, DVB] DVO (СВ-Дубль) + Sub (rus)

Ответить на тему
Статистика раздачи
Размер:  916 MB   |    Зарегистрирован:  7 месяцев 3 дня   |    Скачан:  4 раза

Полного источника не было: 20 минут

 
   
 
 
Автор Сообщение

star21 ®

Пол: Женский

Стаж: 4 года

Сообщений: 551946

Откуда: Екатеринбург

Создавать темы 12-Апр-2019 18:30

[Цитировать]

Секреты Запретного города в Китае
Secrets of China's Forbidden City
Год выпуска: 2017
Страна: Великобритания
Жанр: Документальный, архитектура, история
Продолжительность: 00:46:21Перевод: Профессиональный (двухголосый закадровый) СВ-Дубль
Субтитры: русские, полные (ВГТРК)Режиссер: Иэн Бремнер / Ian BremnerОписание: Самый грандиозный дворец в Китае – Запретный город, величайшее чудо средневекового мира и крупнейшее на земле сооружение из дерева. Дворец был веками закрыт для простых смертных, но теперь доступ за его врата открыт, а учёные уже близки к разгадке тайны этого инженерного шедевра.
Кем был задуман гигантский дворцовый ансамбль? Кто его строил, и как он пережил шестьсот лет войн, мятежей и природных катаклизмов? Тайны Запретного города будут раскрыты.Доп. информация:
[imdb]http://www.imdb.com/title/tt7724904[/imdb]Сэмпл: https://yadi.sk/i/MQmkqdDjZp5uBQКачество видео: DVB 576i
Формат видео: MKV
Видео кодек: H.264 / MPEG-4 AVC
Аудио кодек: MP2 / MPEG Audio
Видео: 720@1047x576 (16:9), 25 fps, ~2515 kbps, 0.243 bit/pixel
Аудио: 48 kHz, 2 channels (dual mono), ~192 kbps
Формат субтитров: softsub (SRT), вшиты в контейнер

MediaInfo

ОбщееУникальный идентификатор                 : 249390828687676951860958689654252517171 (0xBB9EED2DF543CEDA8855712057E03733)Полное имя                               : C:\Torrent\Secrets of China's Forbidden City.2017.DVB.DVO(СВ-Дубль)\Secrets of China's Forbidden City.2017.DVB.DVO(СВ-Дубль).mkvФормат                                   : MatroskaВерсия формата                           : Version 4 / Version 2Размер файла                             : 916 МбайтПродолжительность                        : 46 м.Общий поток                              : 2762 Кбит/секДата кодирования                         : UTC 2019-04-12 10:37:26Программа кодирования                    : mkvmerge v6.1.0 ('Old Devil') built on Mar  4 2013 09:10:42Библиотека кодирования                   : libebml v1.3.0 + libmatroska v1.4.0ВидеоИдентификатор                            : 1Формат                                   : AVCФормат/Информация                        : Advanced Video CodecПрофиль формата                          : Main@L3Параметр CABAC формата                   : ДаПараметр ReFrames формата                : 4 кадраПараметр GOP формата                     : M=4, N=28Идентификатор кодека                     : V_MPEG4/ISO/AVCПродолжительность                        : 46 м.Битрейт                                  : 2515 Кбит/секШирина                                   : 720 пикселейВысота                                   : 576 пикселейСоотношение сторон                       : 16:9Режим частоты кадров                     : ПостоянныйЧастота кадров                           : 25,000 кадров/секСтандарт вещания                         : ComponentЦветовое пространство                    : YUVСубдискретизация насыщенности            : 4:2:0Битовая глубина                          : 8 битТип развёртки                            : ЧересстрочнаяМетод сохранения типа развёртки          : Раздельные поляПорядок развёртки                        : Верхнее поле первоеБит/(Пиксели*Кадры)                      : 0.243Размер потока                            : 834 Мбайт (91%)Default                                  : ДаForced                                   : НетЦветовой диапазон                        : LimitedОсновные цвета                           : BT.601 PALХарактеристики трансфера                 : BT.470 System B, BT.470 System GКоэффициенты матрицы                     : BT.601АудиоИдентификатор                            : 2Формат                                   : MPEG AudioВерсия формата                           : Version 1Профиль формата                          : Layer 2Идентификатор кодека                     : A_MPEG/L2Идентификатор кодека/Подсказка           : MP2Продолжительность                        : 46 м.Вид битрейта                             : ПостоянныйБитрейт                                  : 192 Кбит/секКаналы                                   : 2 каналаЧастота                                  : 48,0 КГцМетод сжатия                             : С потерямиРазмер потока                            : 63,7 Мбайт (7%)Заголовок                                : DVO (СВ-Дубль)Язык                                     : RussianDefault                                  : ДаForced                                   : НетТекстИдентификатор                            : 3Формат                                   : UTF-8Идентификатор кодека                     : S_TEXT/UTF8Идентификатор кодека/Информация          : UTF-8 Plain TextЗаголовок                                : Rus Sub (ВГТРК)Язык                                     : RussianDefault                                  : НетForced                                   : Нет

Чтобы скачать этот контент, Вам необходимо:
1. Скачать и установить торрент-клиент [клик для Windows], (для мобильного найдите на Play Маркет).
2. Кликнуть по [Скачать]


Внимание.
Если проверка ВЫ НЕ РОБОТ - не работает, значит Вы используете устаревший браузер.
Установите актуальный браузер и повторно кликните по [Скачать]
Безопасность: торрент-клиент разрешён АВ Касперского.

[asmlocator.ru].t628059.torrent 
Торрент: Зарегистрирован [ 2019-04-12 18:30 ] · 0F35830C84EAE9628E6964A12F5AA9220866AF2A

Скачать .torrent

Скачать

9 KB

Статус: проверено
Скачан: 4 раз
Размер: 916 MB
terms.php
[Профиль] [ЛС]
Показать сообщения:    
Ответить на тему

Текущее время: 15-Ноя 19:20

Часовой пояс: UTC ± 0



Вы не можете начинать темы
Вы не можете отвечать на сообщения
Вы не можете редактировать свои сообщения
Вы не можете удалять свои сообщения
Вы не можете голосовать в опросах
Вы не можете прикреплять файлы к сообщениям
Вы можете скачивать файлы
Верим фактам, а не вранью Путина! Факт, что Правительство ведёт Россию к истреблению.
Так как численность населения падает, даже не смотря на приток эмигрантов!
Русская нация вымирает и вырождается, смешиваясь с эмигрантами!
Факт, что военных и граждан предприятий заставляют голосовать за партию Единая Россия и Путина
ПОД СТРАХОМ УВОЛЬНЕНИЯ!
Нам не нужно Правительство, блокирующее личную жизнь, интернет, нарушающее сохранность данных.
Все эти действия финансируются за счёт народа!