(Classical opera) Rossini - L\'Italiana in Algeri (1963) / Россини - Итальянка в Алжире [2CD\'s] (Teresa Berganza, Luigi Alva, Orchestra e Coro del Maggio Musicale Fiorentino, Silvio Varviso) - 1989, FLAC (image+.cue) lossless

Ответить на тему
Статистика раздачи
Размер:  624 MB   |    Зарегистрирован:  6 месяцев 27 дней   |    Скачан:  0 раз

Полного источника не было: Никогда

 
   
 
 
Автор Сообщение

star21 ®

Пол: Женский

Стаж: 3 года 11 месяцев

Сообщений: 551988

Откуда: Екатеринбург

Создавать темы 25-Мар-2019 06:05

[Цитировать]

Rossini - L'Italiana in Algeri / Россини - Итальянка в Алжире Жанр: Classical opera
Страна-производитель диска: Made in West Germany
Год издания диска: 1989
Издатель (лейбл): The Decca Record Company Limited / Series: Grand Opera
Номер по каталогу: 417 828-2
Дата записи: 1963
Аудиокодек: FLAC
Тип рипа: image+.cue
Битрейт аудио: lossless
Продолжительность: 65'05 + 64'16 / 02:09:25
Источник: релизер
сайт-источник/ник/другое: Хосе Молина, подарок; Caterina Sforza - тяжелейшая работа с cue (более трёх часов), доп. сканы
Наличие сканов в содержимом раздачи: да, немного авторских сканов jpeg + pdf либретто

Треклист

CD1

01. Sinfonia [00:07:50]02. Atto I. № 1. Introduzione 'Serenate il mesto ciglio' (Coro, Elvira, Zulma, Haly, Mustafa) [00:07:08]03. Recitativo 'Ritiratevi tutti' (Mustafa, Haly) [00:01:03]04. № 2. Cavatina 'Languir per una bella' (Lindoro) [00:06:53]05. Recitativo 'Ah, quando fia ch'io possa in Italia tornar?' (Lindoro, Mustafa) [00:00:42]06. № 3. Duetto 'Se inclinassi a prender moglie' (Lindoro, Mustafa) [00:04:34]07. № 4. Coro 'Quanta roba! Quanti schiavi!' [00:01:10]08. Cavatina 'Cruda sorte! Amor tiranno!' (Isabella, Coro) [00:04:22]09. Recitativo 'Già ci siam. Tanto fa' (Isabella, Taddeo, Haly) [00:01:05]10. № 5. Duetto 'Ai capricci della sorte' (Isabella, Taddeo) [00:07:42]11. Recitativo 'Dunque degg'io lasciarvi?' (Elvira, Mustafa, Haly) [00:01:01]12. № 6. Aria 'Già d'insolito andore' (Mustafa) [00:02:27]13. № 7. Finale I: 'Viva, viva il flagel delle donne' (Coro, Haly, Mustafa, Isabella, Taddeo) [00:02:44]14. 'Oh, che muso, che figura!' (Isabella, Haly) [00:04:17]15. 'Vo' star con min nipote' (Tutti) [00:06:11]16. Dite: chi è quella femmina? (Tutti) [00:05:48]

CD2

01. Atto II. № 8. Introduzione 'Uno stupido, uno stolto' (Coro, Elvira, Zulma, Haly) [00:02:05]02. Recitativo 'Amiche, andate a dire all'Italiana' (Mustafa, Zulma, Elvira, Haly) [00:01:19]03. № 9. Cavatina 'Oh, come il cor di giubilo' (Lindoro) [00:02:19]04. № 10. Coro 'Viva il grande Kaimakan' [00:01:04]05. Recitativo 'Kaimakan! Io non capisco niente' (Taddeo, Mustafa); Aria 'Ho un gran peso sulla testa' (Taddeo, Coro) [00:04:45]06. Recitativo 'Dunque a momenti' (Isabella, Lindoro, Elvira, Zulma) [00:00:38]07. № 11. Cavatina 'Per lui che adoro' (Isabella, Mustafa, Taddeo, Lindoro) [00:06:21]08. Recitativo 'Io non resisto più' (Mustafa, Taddeo, Lindoro) [00:00:36]09. № 12. Quintetto 'Ti presento di mia man' (Mustafa, Isabella, Taddeo, Lindoro, Elvira) [00:10:10]10. Recitativo 'Con tutta la sua boria' (Haly); № 13. Aria 'Le femmine d'Italia' (Haly) [00:02:46]11. Recitativo 'E tu speri di togliere Isabella' (Taddeo, Lindoro, Mustafa) [00:01:15]12. № 14. Terzetto 'Pappataci! Che mai sento!' (Mustafa, Lindoro, Taddeo) [00:06:13]13. Recitativo 'Tutti i nostri Italiani' (Taddeo, Lindoro); № 15. Coro 'Pronti abbiamo e ferri e mani' [00:01:58]14. Recitativo 'Amici, in ogni evento' (Isabella); Rondo 'Pensa alla patria' (Isabella, Coro) [00:07:41]15. Recitativo 'Che bel core ha costei!' (Taddeo, Mustafa) [00:00:45]16. № 16. Finale II: 'Dei Pappataci s'avanza il coro' (Lindoro, Coro Taddeo, Mustafa, Isabella) [00:03:39]17. 'Non sei tu che il grando eletto' (Isabella, Mustafa, Lindoro) [00:06:21]18. 'Son I'aure seconde' (Tutti) [00:04:20]

Исполнители

Gioacchino Rossini (1792-1868)L’ITALIANA IN ALGERI,Dramma giocoso in due atti. Libretto di Angelo Anelli. Prima esecuzione: 22 maggio 1813, VeneziaTeresa Berganza (Isabella, Signora Italiana -mezzosoprano-)Luigi Alva (Lindoro, giovine Italiano, amante d’Isabella, schiavo favorito di Mustafà -tenore-)Fernando Corena (Mustafà, Bey d’Algeri -basso-)Rolando Panerai (Taddeo, compagno d’Isabella -baritono-)Giuliana Tavolaccini (Elvira, moglie di Mustafà -soprano-)Miti Truccato Pace (Zulma, schiava confidente d’Elvira -mezzosoprano-)Paolo Montarsolo (Haly, capitano de’ Corsari Algerini -basso-)Coro del Maggio Musicale Fiorentino (maestro del coro: Adolfo Fanfani)Orchestra del Maggio Musicale FiorentinoSilvio Varviso (direttore)Recording: Firenze, Teatro Della Pergola, 6 & 7/1963Audio CD (May 23, 1989)

Лог создания рипа

CD1

Exact Audio Copy V1.3 from 2. September 2016EAC extraction logfile from 4. March 2019, 15:32Silvio Varviso / Gioacchino Rossini - L'Italiana in Algeri CD1Used drive  : MATSHITADVD-RAM UJ8E1   Adapter: 1  ID: 0Read mode               : SecureUtilize accurate stream : YesDefeat audio cache      : YesMake use of C2 pointers : NoRead offset correction                      : 6Overread into Lead-In and Lead-Out          : NoFill up missing offset samples with silence : YesDelete leading and trailing silent blocks   : NoNull samples used in CRC calculations       : YesUsed interface                              : Native Win32 interface for Win NT & 2000Used output format              : User Defined EncoderSelected bitrate                : 1024 kBit/sQuality                         : HighAdd ID3 tag                     : NoCommand line compressor         : C:\Program Files (x86)\Exact Audio Copy\FLAC\FLAC.EXEAdditional command line options : -6 -V -T "ARTIST=%artist%" -T "TITLE=%title%" -T "ALBUM=%albumtitle%" -T "DATE=%year%" -T "TRACKNUMBER=%tracknr%" -T "GENRE=%genre%" -T "COMMENT=%comment%" -T "BAND=%albuminterpret%" -T "ALBUMARTIST=%albuminterpret%" -T "COMPOSER=%composer%" %haslyrics%--tag-from-file=LYRICS="%lyricsfile%"%haslyrics% -T "DISCNUMBER=%cdnumber%" -T "TOTALDISCS=%totalcds%" -T "TOTALTRACKS=%numtracks%" %hascover%--picture="%coverfile%"%hascover% %source% -o %dest%TOC of the extracted CD     Track |   Start  |  Length  | Start sector | End sector    ---------------------------------------------------------        1  |  0:00.00 |  7:45.37 |         0    |    34911        2  |  7:45.37 |  7:08.50 |     34912    |    67061        3  | 14:54.12 |  1:03.63 |     67062    |    71849        4  | 15:58.00 |  6:53.37 |     71850    |   102861        5  | 22:51.37 |  0:42.25 |    102862    |   106036        6  | 23:33.62 |  4:36.50 |    106037    |   126786        7  | 28:10.37 |  1:10.38 |    126787    |   132074        8  | 29:21.00 |  4:23.00 |    132075    |   151799        9  | 33:44.00 |  1:05.25 |    151800    |   156699       10  | 34:49.25 |  7:45.00 |    156700    |   191574       11  | 42:34.25 |  1:01.12 |    191575    |   196161       12  | 43:35.37 |  2:29.50 |    196162    |   207386       13  | 46:05.12 |  2:44.25 |    207387    |   219711       14  | 48:49.37 |  4:17.13 |    219712    |   238999       15  | 53:06.50 |  6:11.50 |    239000    |   266874       16  | 59:18.25 |  5:46.50 |    266875    |   292874Range status and errorsSelected range     Filename C:\Users\Usuario\Desktop\Silvio Varviso - Gioacchino Rossini - L'Italiana in Algeri CD1.wav     Peak level 87.9 %     Extraction speed 4.6 X     Range quality 99.9 %     Test CRC 6C04D861     Copy CRC 6C04D861     Copy OKNo errors occurredAccurateRip summaryTrack  1  accurately ripped (confidence 2)  [F7A57C6C]  (AR v2)Track  2  accurately ripped (confidence 2)  [97F0BC83]  (AR v2)Track  3  accurately ripped (confidence 2)  [B890F5D4]  (AR v2)Track  4  accurately ripped (confidence 2)  [A0F742E2]  (AR v2)Track  5  accurately ripped (confidence 2)  [30BC10EC]  (AR v2)Track  6  accurately ripped (confidence 2)  [DEF887BF]  (AR v2)Track  7  accurately ripped (confidence 2)  [0CACF526]  (AR v2)Track  8  accurately ripped (confidence 2)  [FF565959]  (AR v2)Track  9  accurately ripped (confidence 2)  [B597EF80]  (AR v2)Track 10  accurately ripped (confidence 2)  [54B3828C]  (AR v2)Track 11  accurately ripped (confidence 2)  [A701A0D6]  (AR v2)Track 12  accurately ripped (confidence 2)  [81DB05F4]  (AR v2)Track 13  accurately ripped (confidence 2)  [47CC1144]  (AR v2)Track 14  accurately ripped (confidence 2)  [45F61E78]  (AR v2)Track 15  accurately ripped (confidence 2)  [BD79C63F]  (AR v2)Track 16  accurately ripped (confidence 2)  [AD665A41]  (AR v2)All tracks accurately rippedEnd of status report---- CUETools DB Plugin V2.1.6[CTDB TOCID: v2xdNnsFgqxSe8DvbO.clT6BRNk-] foundSubmit result: v2xdNnsFgqxSe8DvbO.clT6BRNk- has been confirmedTrack | CTDB Status  1   | (2/2) Accurately ripped  2   | (2/2) Accurately ripped  3   | (2/2) Accurately ripped  4   | (2/2) Accurately ripped  5   | (2/2) Accurately ripped  6   | (2/2) Accurately ripped  7   | (2/2) Accurately ripped  8   | (2/2) Accurately ripped  9   | (2/2) Accurately ripped 10   | (2/2) Accurately ripped 11   | (2/2) Accurately ripped 12   | (2/2) Accurately ripped 13   | (2/2) Accurately ripped 14   | (2/2) Accurately ripped 15   | (2/2) Accurately ripped 16   | (2/2) Accurately ripped==== Log checksum 4217EB03C7714861083BE162E80A55B161B8A89EA8312503F213DB64F4CBFFE4 ====

CD2

Exact Audio Copy V1.3 from 2. September 2016EAC extraction logfile from 4. March 2019, 16:03Silvio Varviso / Gioacchino Rossini - L'Italiana in Algeri CD2Used drive  : MATSHITADVD-RAM UJ8E1   Adapter: 1  ID: 0Read mode               : SecureUtilize accurate stream : YesDefeat audio cache      : YesMake use of C2 pointers : NoRead offset correction                      : 6Overread into Lead-In and Lead-Out          : NoFill up missing offset samples with silence : YesDelete leading and trailing silent blocks   : NoNull samples used in CRC calculations       : YesUsed interface                              : Native Win32 interface for Win NT & 2000Used output format              : User Defined EncoderSelected bitrate                : 1024 kBit/sQuality                         : HighAdd ID3 tag                     : NoCommand line compressor         : C:\Program Files (x86)\Exact Audio Copy\FLAC\FLAC.EXEAdditional command line options : -6 -V -T "ARTIST=%artist%" -T "TITLE=%title%" -T "ALBUM=%albumtitle%" -T "DATE=%year%" -T "TRACKNUMBER=%tracknr%" -T "GENRE=%genre%" -T "COMMENT=%comment%" -T "BAND=%albuminterpret%" -T "ALBUMARTIST=%albuminterpret%" -T "COMPOSER=%composer%" %haslyrics%--tag-from-file=LYRICS="%lyricsfile%"%haslyrics% -T "DISCNUMBER=%cdnumber%" -T "TOTALDISCS=%totalcds%" -T "TOTALTRACKS=%numtracks%" %hascover%--picture="%coverfile%"%hascover% %source% -o %dest%TOC of the extracted CD     Track |   Start  |  Length  | Start sector | End sector    ---------------------------------------------------------        1  |  0:00.00 |  2:00.00 |         0    |     8999        2  |  2:00.00 |  1:19.37 |      9000    |    14961        3  |  3:19.37 |  2:19.25 |     14962    |    25411        4  |  5:38.62 |  1:04.00 |     25412    |    30211        5  |  6:42.62 |  4:48.00 |     30212    |    51811        6  | 11:30.62 |  0:38.38 |     51812    |    54699        7  | 12:09.25 |  6:21.62 |     54700    |    83336        8  | 18:31.12 |  0:36.38 |     83337    |    86074        9  | 19:07.50 | 10:10.25 |     86075    |   131849       10  | 29:18.00 |  2:47.25 |    131850    |   144399       11  | 32:05.25 |  1:15.00 |    144400    |   150024       12  | 33:20.25 |  6:15.12 |    150025    |   178161       13  | 39:35.37 |  1:58.63 |    178162    |   187074       14  | 41:34.25 |  7:42.37 |    187075    |   221761       15  | 49:16.62 |  0:45.50 |    221762    |   225186       16  | 50:02.37 |  3:39.00 |    225187    |   241611       17  | 53:41.37 |  6:21.13 |    241612    |   270199       18  | 60:02.50 |  4:13.25 |    270200    |   289199Range status and errorsSelected range     Filename C:\Users\Usuario\Desktop\Silvio Varviso - Gioacchino Rossini - L'Italiana in Algeri CD2.wav     Peak level 85.0 %     Extraction speed 4.6 X     Range quality 100.0 %     Test CRC 48BDA99D     Copy CRC 48BDA99D     Copy OKNo errors occurredAccurateRip summaryTrack  1  accurately ripped (confidence 2)  [64BD620C]  (AR v2)Track  2  accurately ripped (confidence 2)  [C45DC6CC]  (AR v2)Track  3  accurately ripped (confidence 2)  [C38C3BAC]  (AR v2)Track  4  accurately ripped (confidence 2)  [923069FF]  (AR v2)Track  5  accurately ripped (confidence 2)  [E58F8BD2]  (AR v2)Track  6  accurately ripped (confidence 2)  [AE633700]  (AR v2)Track  7  accurately ripped (confidence 2)  [D26781EB]  (AR v2)Track  8  accurately ripped (confidence 2)  [9D174FF5]  (AR v2)Track  9  accurately ripped (confidence 2)  [F3C249F9]  (AR v2)Track 10  accurately ripped (confidence 2)  [2DFDEDD0]  (AR v2)Track 11  accurately ripped (confidence 2)  [41C448D5]  (AR v2)Track 12  accurately ripped (confidence 2)  [AB9F564A]  (AR v2)Track 13  accurately ripped (confidence 2)  [C5DDF2B0]  (AR v2)Track 14  accurately ripped (confidence 2)  [279E5F0B]  (AR v2)Track 15  accurately ripped (confidence 2)  [C492C350]  (AR v2)Track 16  accurately ripped (confidence 2)  [F877C768]  (AR v2)Track 17  accurately ripped (confidence 1)  [367AA6F2]  (AR v2)Track 18  accurately ripped (confidence 1)  [FE157549]  (AR v2)All tracks accurately rippedEnd of status report---- CUETools DB Plugin V2.1.6[CTDB TOCID: kGnc8HTBK7sOwSt6ka4kWklLjr4-] foundSubmit result: kGnc8HTBK7sOwSt6ka4kWklLjr4- has been confirmedTrack | CTDB Status  1   | (2/2) Accurately ripped  2   | (1/2) Accurately ripped, or (1/2) differs in 2 samples @00:37:55  3   | (2/2) Accurately ripped  4   | (2/2) Accurately ripped  5   | (2/2) Accurately ripped  6   | (2/2) Accurately ripped  7   | (2/2) Accurately ripped  8   | (2/2) Accurately ripped  9   | (1/2) Accurately ripped, or (1/2) differs in 7 samples @01:37:46,04:49:42-04:49:43 10   | (2/2) Accurately ripped 11   | (2/2) Accurately ripped 12   | (2/2) Accurately ripped 13   | (2/2) Accurately ripped 14   | (2/2) Accurately ripped 15   | (2/2) Accurately ripped 16   | (2/2) Accurately ripped 17   | (1/2) Accurately ripped, or (1/2) differs in 9 samples @03:06:67,06:04:70-06:04:71 18   | (1/2) Accurately ripped, or (1/2) differs in 11 samples @00:42:60,00:50:59,00:52:44,00:52:63,00:53:08,02:51:67==== Log checksum E44816B1C44B2E2C7264F342BBB1C7D7228779A62C9B38FD2F74FB53CEA92B79 ====

Содержание индексной карты (.CUE)

CD1

REM GENRE ClassicalREM DATE 1963REM DISCID F40F4110REM COMMENT "ExactAudioCopy v1.3"PERFORMER "Coro del Maggio Musicale Fiorentino (maestro del coro: Adolfo Fanfani), Orchestra del Maggio Musicale Fiorentino, Silvio Varviso (direttore) / Teresa Berganza (Isabella, Signora Italiana -mezzosoprano-), Luigi Alva (Lindoro, giovine Italiano, amante d’Isabella, schiavo favorito di Mustafà -tenore-) Fernando Corena (Mustafà, Bey d’Algeri -basso-), Rolando Panerai (Taddeo, compagno d’Isabella -baritono-), Giuliana Tavolaccini (Elvira, moglie di Mustafà -soprano-), Miti Truccato Pace (Zulma, schiava confidente d’Elvira -mezzosoprano-), Paolo Montarsolo (Haly, capitano de’ Corsari Algerini -basso-)"TITLE "Gioacchino Rossini - L’Italiana in Algeri CD1"REM COMPOSER "Gioacchino Rossini (1792-1868)"FILE "Silvio Varviso - Gioacchino Rossini - L’Italiana in Algeri CD1.flac" WAVE  TRACK 01 AUDIO    TITLE "L’ITALIANA IN ALGERI, Dramma giocoso in due atti. Libretto di Angelo Anelli. Prima esecuzione: 22 maggio 1813, Venezia - Sinfonia"    PERFORMER "Orchestra del Maggio Musicale Fiorentino, Silvio Varviso"    REM COMPOSER "Gioacchino Rossini"    INDEX 01 00:00:00  TRACK 02 AUDIO    TITLE "ATTO PRIMO. Scena prima. № 1. Introduzione. “Serenate il mesto ciglio” (Coro di Eunuchi, Elvira, Zulma, Haly, Mustafà)"    PERFORMER "Orchestra e Coro del Maggio Musicale Fiorentino, Silvio Varviso & Giuliana Tavolaccini, Miti Truccato Pace, Paolo Montarsolo, Fernando Corena"    REM COMPOSER "Gioacchino Rossini"    INDEX 01 07:45:37  TRACK 03 AUDIO    TITLE "Scena prima. Recitativo: “Ritiratevi tutti. Haly, t’arresta” (Mustafà) / Scena seconda. Recitativo: “Tu sai che sazio io son di questa moglie” (Mustafà, Haly)"    PERFORMER "Orchestra del Maggio Musicale Fiorentino, Silvio Varviso & Fernando Corena, Paolo Montarsolo"    REM COMPOSER "Gioacchino Rossini"    INDEX 01 14:54:12  TRACK 04 AUDIO    TITLE "scena terza. № 2. Cavatina: “Languir per una bella” (Lindoro)"    PERFORMER "Orchestra del Maggio Musicale Fiorentino, Silvio Varviso & Luigi Alva"    REM COMPOSER "Gioacchino Rossini"    INDEX 01 15:58:00  TRACK 05 AUDIO    TITLE "scena terza. Recitativo: “Ah, quando fia ch’io possa in Italia tornar?” (Lindoro, Mustafà)"    PERFORMER "Orchestra del Maggio Musicale Fiorentino, Silvio Varviso & Luigi Alva, Fernando Corena"    REM COMPOSER "Gioacchino Rossini"    INDEX 01 22:51:37  TRACK 06 AUDIO    TITLE "scena terza. № 3. Duetto: “Se inclinassi a prender moglie” (Lindoro, Mustafà)"    PERFORMER "Orchestra del Maggio Musicale Fiorentino, Silvio Varviso & Luigi Alva, Fernando Corena"    REM COMPOSER "Gioacchino Rossini"    INDEX 01 23:33:62  TRACK 07 AUDIO    TITLE "scena quarta. № 4. Coro e Cavatina. Coro: “Quanta roba! Quanti schiavi!” (Coro di Corsari I, Haly, Coro di Corsari II)"    PERFORMER "Orchestra e Coro del Maggio Musicale Fiorentino, Silvio Varviso"    REM COMPOSER "Gioacchino Rossini"    INDEX 01 28:10:37  TRACK 08 AUDIO    TITLE "scena quarta. Cavatina: “Cruda sorte! Amor tiranno!” (Isabella, Coro)"    PERFORMER "Orchestra e Coro del Maggio Musicale Fiorentino, Silvio Varviso & Teresa Berganza"    REM COMPOSER "Gioacchino Rossini"    INDEX 01 29:21:00  TRACK 09 AUDIO    TITLE "scena quarta. Recitativo: “Già ci siam. Tanto fa. Convien portarla con gran disinvoltura” (Isabella, Taddeo, Haly)"    PERFORMER "Orchestra del Maggio Musicale Fiorentino, Silvio Varviso & Teresa Berganza, Rolando Panerai, Paolo Montarsolo"    REM COMPOSER "Gioacchino Rossini"    INDEX 01 33:44:00  TRACK 10 AUDIO    TITLE "scena quinto. № 5. Duetto: “Ai capricci della sorte” (Isabella, Taddeo)"    PERFORMER "Orchestra del Maggio Musicale Fiorentino, Silvio Varviso & Teresa Berganza, Rolando Panerai"    REM COMPOSER "Gioacchino Rossini"    INDEX 01 34:49:25  TRACK 11 AUDIO    TITLE "scena ottava. Recitativo: “Dunque degg’io lasciarvi?” (Elvira, Mustafà, Haly)"    PERFORMER "Orchestra del Maggio Musicale Fiorentino, Silvio Varviso & Giuliana Tavolaccini, Fernando Corena, Paolo Montarsolo"    REM COMPOSER "Gioacchino Rossini"    INDEX 01 42:34:25  TRACK 12 AUDIO    TITLE "scena ottava. № 6. Aria: “Già d’insolito ardore” (Mustafà)"    PERFORMER "Orchestra del Maggio Musicale Fiorentino, Silvio Varviso & Fernando Corena"    REM COMPOSER "Gioacchino Rossini"    INDEX 01 43:35:37  TRACK 13 AUDIO    TITLE "scena decima. № 7. Finale I. “Viva, viva il flagel delle donne” (Coro di Eunuchi, Haly, Mustafà)"    PERFORMER "Orchestra e Coro del Maggio Musicale Fiorentino, Silvio Varviso & Paolo Montarsolo, Fernando Corena"    REM COMPOSER "Gioacchino Rossini"    INDEX 01 46:05:12  TRACK 14 AUDIO    TITLE "scena undicesima. “Oh, che muso, che figura!…” (Isabella, Mustafà)"    PERFORMER "Orchestra del Maggio Musicale Fiorentino, Silvio Varviso & Teresa Berganza, Paolo Montarsolo"    REM COMPOSER "Gioacchino Rossini"    INDEX 01 48:49:37  TRACK 15 AUDIO    TITLE "scena dodicesma. “Vo’ star con min nipote” (Taddeo, Haly, Mustafà, Isabella) / Scena ultima. “Pria di dividerci da voi, Signore” (Elvira, Zulma, Lindoro, Isabella, Mustafà, Haly, Taddeo)"    PERFORMER "Orchestra del Maggio Musicale Fiorentino, Silvio Varviso & Rolando Panerai, Paolo Montarsolo, Fernando Corena, Teresa Berganza, Giuliana Tavolaccini, Miti Truccato Pace, Luigi Alva, Rolando Panerai"    REM COMPOSER "Gioacchino Rossini"    INDEX 01 53:06:50  TRACK 16 AUDIO    TITLE "scena ultima. “Dite: chi è quella femmina?” (Isabella, Mustafà) / Stretta del Finale I. “Va sossopra il mio cervello” (Taddeo, Mustafà, Elvira, Isabella, Zulma, Lindoro, Haly, Coro)"    PERFORMER "Orchestra e Coro del Maggio Musicale Fiorentino, Silvio Varviso & Teresa Berganza, Fernando Corena, Rolando Panerai, Giuliana Tavolaccini, Miti Truccato Pace, Luigi Alva, Paolo Montarsolo"    REM COMPOSER "Gioacchino Rossini"    INDEX 01 59:18:25

CD2

REM GENRE OperaREM DISCID CD0F1012REM COMMENT "ExactAudioCopy v1.3"PERFORMER "Coro del Maggio Musicale Fiorentino (maestro del coro: Adolfo Fanfani), Orchestra del Maggio Musicale Fiorentino, Silvio Varviso (direttore) / Teresa Berganza (Isabella, Signora Italiana -mezzosoprano-), Luigi Alva (Lindoro, giovine Italiano, amante d’Isabella, schiavo favorito di Mustafà -tenore-) Fernando Corena (Mustafà, Bey d’Algeri -basso-), Rolando Panerai (Taddeo, compagno d’Isabella -baritono-), Giuliana Tavolaccini (Elvira, moglie di Mustafà -soprano-), Miti Truccato Pace (Zulma, schiava confidente d’Elvira -mezzosoprano-), Paolo Montarsolo (Haly, capitano de’ Corsari Algerini -basso-)"TITLE "Gioacchino Rossini - L’Italiana in Algeri CD2"REM COMPOSER "Gioacchino Rossini (1792-1868)"FILE "Silvio Varviso - Gioacchino Rossini - L’Italiana in Algeri CD2.flac" WAVE  TRACK 01 AUDIO    TITLE "ATTO SECONDO. Scena prima. № 8. Introduzione. “Uno stupido, uno stolto” (Coro di Eunuchi, Elvira, Zulma, Haly)"    PERFORMER "Orchestra e Coro del Maggio Musicale Fiorentino, Silvio Varviso & Giuliana Tavolaccini, Miti Truccato Pace, Paolo Montarsolo"    REM COMPOSER "Gioacchino Rossini"    INDEX 01 00:00:00  TRACK 02 AUDIO    TITLE "Scena seconda. Recitativo: “Amiche, andate a dire all’italiana” (Mustafà, Zulma, Elvira, Haly) / Scena terza. Recitativo: “Qual disdetta è la mia! Onor e patria” (Isabella, Lindoro)"    PERFORMER "Orchestra del Maggio Musicale Fiorentino, Silvio Varviso & Fernando Corena, Miti Truccato Pace, Giuliana Tavolaccini, Paolo Montarsolo, Teresa Berganza, Luigi Alva"    REM COMPOSER "Gioacchino Rossini"    INDEX 01 02:00:00  TRACK 03 AUDIO    TITLE "Scena terza. № 9. Cavatina: “Oh, come il cor di giubilo” (Lindoro)"    PERFORMER "Orchestra del Maggio Musicale Fiorentino, Silvio Varviso & Luigi Alva"    REM COMPOSER "Gioacchino Rossini"    INDEX 01 03:19:37  TRACK 04 AUDIO    TITLE "Scena quarta. № 10. Coro, Recitativo e Aria. Coro: “Viva il grande Kaimakan” (Coro di Eunuchi)"    PERFORMER "Orchestra e Coro del Maggio Musicale Fiorentino, Silvio Varviso"    REM COMPOSER "Gioacchino Rossini"    INDEX 01 05:38:62  TRACK 05 AUDIO    TITLE "Scena quarta. Recitativo: “Kaimakan! Io non capisco niente” (Taddeo, Mustafà) ; Aria: “Ho un gran peso sulla testa” (Taddeo, Coro)"    PERFORMER "Orchestra e Coro del Maggio Musicale Fiorentino, Silvio Varviso & Rolando Panerai, Fernando Corena"    REM COMPOSER "Gioacchino Rossini"    INDEX 01 06:42:62  TRACK 06 AUDIO    TITLE "Scena quinta. Recitativo: “Dunque a momenti” (Isabella, Lindoro, Elvira, Zulma)"    PERFORMER "Orchestra del Maggio Musicale Fiorentino, Silvio Varviso & Teresa Berganza, Luigi Alva, Giuliana Tavolaccini, Miti Truccato Pace"    REM COMPOSER "Gioacchino Rossini"    INDEX 01 11:30:62  TRACK 07 AUDIO    TITLE "Scena quinta. № 11. Cavatina: “Per lui che adoro” (Isabella, Mustafà, Taddeo, Lindoro)"    PERFORMER "Orchestra del Maggio Musicale Fiorentino, Silvio Varviso & Teresa Berganza, Fernando Corena, Rolando Panerai, Luigi Alva"    REM COMPOSER "Gioacchino Rossini"    INDEX 01 12:09:25  TRACK 08 AUDIO    TITLE "Scena quinta. Recitativo: “Io non resisto più: questa Isabella” (Mustafà, Taddeo, Lindoro)"    PERFORMER "Orchestra del Maggio Musicale Fiorentino, Silvio Varviso & Fernando Corena, Rolando Panerai, Luigi Alva"    REM COMPOSER "Gioacchino Rossini"    INDEX 01 18:31:12  TRACK 09 AUDIO    TITLE "Scena quinta. № 12. Quintetto: “Ti presento di mia man” (Mustafà, Isabella, Taddeo, Lindoro, Elvira)"    PERFORMER "Orchestra del Maggio Musicale Fiorentino, Silvio Varviso & Fernando Corena, Teresa Berganza, Rolando Panerai, Luigi Alva, Giuliana Tavolaccini"    REM COMPOSER "Gioacchino Rossini"    INDEX 01 19:07:50  TRACK 10 AUDIO    TITLE "Scena settima. Recitativo: “Con tutta la sua boria” (Haly) ; № 13. Aria: “Le femmine d’Italia” (Haly)"    PERFORMER "Orchestra del Maggio Musicale Fiorentino, Silvio Varviso & Paolo Montarsolo"    REM COMPOSER "Gioacchino Rossini"    INDEX 01 29:18:00  TRACK 11 AUDIO    TITLE "Scena ottava. Recitativo: “E tu speri di togliere Isabella” (Taddeo, Lindoro) / Scena decima. Recitativo: “Orsù: la tua nipote con chi crede” (Mustafà, Lindoro, Taddeo)"    PERFORMER "Orchestra del Maggio Musicale Fiorentino, Silvio Varviso & Rolando Panerai, Luigi Alva, Fernando Corena"    REM COMPOSER "Gioacchino Rossini"    INDEX 01 32:05:25  TRACK 12 AUDIO    TITLE "Scena decima. № 14. Terzetto: “Pappataci! Che mai sento?” (Mustafà, Lindoro, Taddeo)"    PERFORMER "Orchestra del Maggio Musicale Fiorentino, Silvio Varviso & Fernando Corena, Luigi Alva, Rolando Panerai"    REM COMPOSER "Gioacchino Rossini"    INDEX 01 33:20:25  TRACK 13 AUDIO    TITLE "Scena undicesima. Recitativo: “Tutti i nostri italiani” (Taddeo, Lindoro) ; № 15. Coro, Recitativo e Rondo. Coro: “Pronti abbiamo e ferri e mani” (Coro di schiavi Italiani)"    PERFORMER "Orchestra e Coro del Maggio Musicale Fiorentino, Silvio Varviso & Rolando Panerai, Luigi Alva"    REM COMPOSER "Gioacchino Rossini"    INDEX 01 39:35:37  TRACK 14 AUDIO    TITLE "Scena undicesima. Recitativo: “Amici, in ogni evento” (Isabella) ; Rondo: “Pensa alla patria, e intrepido” (Isabella, Coro)"    PERFORMER "Orchestra e Coro del Maggio Musicale Fiorentino, Silvio Varviso & Teresa Berganza"    REM COMPOSER "Gioacchino Rossini"    INDEX 01 41:34:25  TRACK 15 AUDIO    TITLE "Scena dodicesima. Recitativo: “Che bel core ha costei! Chi avria mai detto” (Taddeo, Mustafà)"    PERFORMER "Orchestra del Maggio Musicale Fiorentino, Silvio Varviso & Rolando Panerai, Fernando Corena"    REM COMPOSER "Gioacchino Rossini"    INDEX 01 49:16:62  TRACK 16 AUDIO    TITLE "Scena tredicesima. № 16. Finale II. “Dei Pappataci s’avanza il coro” (Lindoro, Coro di Pappataci, Taddeo, Mustafà)"    PERFORMER "Orchestra e Coro del Maggio Musicale Fiorentino, Silvio Varviso & Luigi Alva, Rolando Panerai, Fernando Corena"    REM COMPOSER "Gioacchino Rossini"    INDEX 01 50:02:37  TRACK 17 AUDIO    TITLE "Scena quattordicesima. “Non sei tu che il grando eletto” (Isabella, Mustafà, Coro, Lindoro, Taddeo)"    PERFORMER "Orchestra e Coro del Maggio Musicale Fiorentino, Silvio Varviso & Teresa Berganza, Fernando Corena, Luigi Alva, Rolando Panerai"    REM COMPOSER "Gioacchino Rossini"    INDEX 01 53:41:37  TRACK 18 AUDIO    TITLE "Scena quindicesima. “Son l’aure seconde, son placide l’onde” (Coro di schiavi, Lindoro, Isabella, Taddeo, Mustafà) / Scena ultima. “Mio Signore…” (Zulma, Haly, Elvira, Mustafà, Isabella, Lindoro, Taddeo, Coro di schiavi, Tutti)"    PERFORMER "Orchestra e Coro del Maggio Musicale Fiorentino, Silvio Varviso & Luigi Alva, Teresa Berganza, Rolando Panerai, Fernando Corena, Miti Truccato Pace, Paolo Montarsolo, Giuliana Tavolaccini"    REM COMPOSER "Gioacchino Rossini"    INDEX 01 60:02:50

Синопсис

L'Italiana in AlgeriМузыкальная комедия в двух действиях; либретто А. Анелли.Первая постановка: Венеция, театр "Сан-Бенедетто", 22 мая 1813 года.Действующие лица:Изабелла, итальянкаЛиндоро, возлюбленный ИзабеллыТаддео, старый поклонник ИзабеллыМустафа, бей АлжираЭльвира, его женаЗульма, ее рабыняАли, капитан стражи беяналожницы и евнух в серале, итальянские и другие рабы, моряки, алжирские корсары.Эльвира, жена султана Мустафы, жалуется на то, что супруг разлюбил её, а приближённые её утешают. А вот и толстяк Мустафа. Он восхваляет женщин. Оставшись наедине со своим ближайшим советником Али, Мустафа поверяет ему свои мысли. Султан хочет выдать свою жену замуж за молодого пленника, итальянца Линдоро. Взамен Эльвиры он просит Али найти ему красавицу итальянку. Тем временем ничего не подозревающий Линдоро грустит. Единственное, что его утешает, - это надежда освободиться и обрести счастье со своей возлюбленной Изабеллой.А события стремительно развиваются. На берег моря недалеко от султанского дворца доставлены сокровища и пленники с потерпевшего крушение корабля. Среди них находится девушка редкой красоты. Это итальянка Изабелла. Она предприняла это путешествие, чтобы найти своего возлюбленного Линдоро. Однако её благое начинание окончилось плачевно - девушка оказалась в плену. Неожиданно Изабелла обращает внимание на толстяка, тщетно пытающегося вырваться из рук Али. Ба! Да ведь это ее давний страстный поклонник, земляк Таддео. Он надоел бедняжке, начинается их обычная ссора. Но сейчас, в момент опасности, надо объединиться. А тут ещё счастливая встреча - Линдоро. Вот тут-то и начинает свиваться клубок хитросплетений, выдумок и обманов, и всем руководит ловкая и энергичная Изабелла. В итоге все запутались.В дальнейшем Изабелла и её друзья окончательно одурачивают Мустафу. Они даже посвящают его в сан паппатачи (простачка), чтобы он был "достоин" любви Изабеллы. Носитель этого почётного звания должен есть, пить, спать и жить спокойно. Всё это очень нравится Мустафе. Во время пира в честь паппатачи хитрая Изабелла напоила вином стражу, после чего собрала всех пленников. Её обращение к ним полно решимости и отваги. Молодая девушка призывает своих соотечественников к мужеству, чтобы бороться за свободу и вновь увидеть свою родину. В результате влюбленные вместе с итальянскими рабами совершают побег. Мустафа примиряется с Эльвирой.

Чтобы скачать этот контент, Вам необходимо:
1. Скачать и установить торрент-клиент [клик для Windows], (для мобильного найдите на Play Маркет).
2. Кликнуть по [Скачать]


Внимание.
Если проверка ВЫ НЕ РОБОТ - не работает, значит Вы используете устаревший браузер.
Установите актуальный браузер и повторно кликните по [Скачать]
Безопасность: торрент-клиент разрешён АВ Касперского.

[asmlocator.ru].t622787.torrent 
Торрент: Зарегистрирован [ 2019-03-25 06:05 ] · EDBE22060800290350D55FE615425D85DDC2FABE

Скачать .torrent

Скачать

14 KB

Статус: проверено
Скачан: 0 раз
Размер: 624 MB
terms.php
[Профиль] [ЛС]
Показать сообщения:    
Ответить на тему

Текущее время: 21-Окт 14:09

Часовой пояс: UTC ± 0



Вы не можете начинать темы
Вы не можете отвечать на сообщения
Вы не можете редактировать свои сообщения
Вы не можете удалять свои сообщения
Вы не можете голосовать в опросах
Вы не можете прикреплять файлы к сообщениям
Вы можете скачивать файлы
Верим фактам, а не вранью Путина! Факт, что Правительство ведёт Россию к истреблению.
Так как численность населения падает, даже не смотря на приток эмигрантов!
Русская нация вымирает и вырождается, смешиваясь с эмигрантами!
Факт, что военных и граждан предприятий заставляют голосовать за партию Единая Россия и Путина
ПОД СТРАХОМ УВОЛЬНЕНИЯ!
Нам не нужно Правительство, блокирующее личную жизнь, интернет, нарушающее сохранность данных.
Все эти действия финансируются за счёт народа!