NG. Осушить океан: глубокое погружение (1-2 серия из 8) / Drain the Oceans: Deep Dive [2018, Документальный, исследования, история, HDTVRip] (Обновляемая)

Reply to topic
DL-List and Torrent activity
Size:  1.29 GB   |    Registered:  4 months 3 days   |    Completed:  1 time

Seeder not seen: 27 minutes

 
   
 
 
Author Message

star21 ®

Gender: Female

Longevity: 3 years 8 months

Posts: 552042

Location: Екатеринбург

Post 15-Mar-2019 13:30

[Quote]

NG. Осушить океан: глубокое погружение (1-2 серия из 8) / Drain the Oceans: Deep Dive Дата/Год выпуска: 2018
Страна: Великобритания, Австралия
Жанр: Документальный, исследования, история
Продолжительность: 2 х ~00:44:00
Перевод: Профессиональный (дублированный)Телеканал: National GeographicОписание: Представьте, что мы осушили океаны, позволили воде уйти и раскрыть тайны дна. А мы можем это сделать... С помощью новейших технологий подводного сканирования мы изучим глубокие океаны и превратим точные данные в трехмерные изображения. Мы увидим погрузившиеся в воду города, затонувшие корабли и другие удивительные чудеса, скрытые в глубинах океанов и морей, найдём затерянные миры, проникнем в эпическую историю человеческой цивилизации и историю планеты Земля. Исследуйте вместе с нами мир, который никто еще не видел, (потому что он скрыт от нас километровой толщей воды) - ландшафт морского дна. Присоединяйтесь к экспедициям, цель которых - поиск давно затонувших кораблей и ушедших под воду древних городов. Последуйте за учеными, исследующими самые глубокие и темные уголки подводного мира. Трехмерные карты, компьютерная графика и современные средства визуализации помогут вам впервые взглянуть на эти тайны океана.Доп. информация: Авторство релиза - alf62
качество: HDTVRip
формат: AVI
Видео: 720x400 (1.80:1), 25 fps, XviD build 73 ~1899 kbps avg, 0.26 bit/pixel
Аудио: 48 kHz, AC3 Dolby Digital, 2/0 (L,R) ch, ~192.00 kbps avgОсушить океан / Drain the Oceans на rutracker.cr

Список выпусков/серий

1. Затонувшие города / Sunken Cities
Утраченные цивилизации, таинственные затонувшие города и легендарная Атлантида исчезнувшая под волнами. Может ли осушение океанов помочь открыть причину их гибели?2. Сокровища глубин / Treasures of the Deep
Веками, мировой океан бороздили корабли, трюмы которых были набиты серебром, золотом и драгоценными камнями. Их атаковали пираты, трепали штормы, им угрожали рифы и скалистые берега. По всему миру бесчисленное множество сокровищ и затонувших кораблей, остаются неизведанными. Осушив океан, мы сможем раскрыть их самые ценные секреты.3. Затонувшие военные корабли / Sunken War Ships
Под поверхностью морей и океанов лежит целое кладбище затонувших военных кораблей. Морское дно буквально усеяно обломками судов, принимавших участие в Первой и Второй мировых войнах. Среди них и самые крупные из когда-либо построенных военных кораблей. Но свидетельства кораблекрушений скрыты глубоко под водой, и истинные истории этих событий остаются пока окутанными тайной. Кто выиграл морское сражение около полуострова Ютландия? Как затопление германского флота в гавани Скапа Флоу привело нацистскую Германию к прорыву в строительстве подводных лодок? Научные данные в сочетании с компьютерной графикой помогут нам исследовать затерянные в морских глубинах останки кораблекрушений Первой и Второй мировых войн.4. Бурные моря / Stormy Seas
5. Саботаж в открытом море / Sabotage on the High Seas
6. Затонувшие берега Америки/ America's Sunken Shores
7. Глубоководные бедствия / Deep Water Disasters
8. Подводные империи / Undersea Empires

MediaInfo

ОбщееПолное имя                               : D:\Запись\Осушить океан глубокое погружение\Осушить.океан.глубокое.погружение.2018.XviD.HDTVRip.alf62\01.Затонувшие.города.2018.XviD.HDTVRip.alf62.aviФормат                                   : AVIФормат/Информация                        : Audio Video InterleaveРазмер файла                             : 661 МбайтПродолжительность                        : 43 м.Общий поток                              : 2101 Кбит/секПрограмма кодирования                    : VirtualDubMod 1.5.10.3 | www.virtualdub-fr.org || (build 2550/release)Библиотека кодирования                   : VirtualDubMod build 2550/releaseВидеоИдентификатор                            : 0Формат                                   : MPEG-4 VisualПрофиль формата                          : Advanced Simple@L5Параметр BVOP формата                    : 2Параметр QPel формата                    : НетПараметр GMC формата                     : Без точки переходаПараметр матрицы формата                 : Default (MPEG)Идентификатор кодека                     : XVIDИдентификатор кодека/Подсказка           : XviDПродолжительность                        : 43 м.Битрейт                                  : 1900 Кбит/секШирина                                   : 720 пикселейВысота                                   : 400 пикселейСоотношение сторон                       : 16:9Частота кадров                           : 25,000 кадров/секЦветовое пространство                    : YUVСубдискретизация насыщенности            : 4:2:0Битовая глубина                          : 8 битТип развёртки                            : ПрогрессивнаяМетод сжатия                             : С потерямиБит/(Пиксели*Кадры)                      : 0.264Размер потока                            : 598 Мбайт (90%)Библиотека кодирования                   : XviD 73АудиоИдентификатор                            : 1Формат                                   : AC-3Формат/Информация                        : Audio Coding 3Расширение режима                        : CM (complete main)Параметр Endianness формата              : BigИдентификатор кодека                     : 2000Продолжительность                        : 43 м.Вид битрейта                             : ПостоянныйБитрейт                                  : 192 Кбит/секКаналы                                   : 2 каналаРасположение каналов                     : Front: L RЧастота                                  : 48,0 КГцЧастота кадров                           : 31,250 кадров/сек (1536 spf)Метод сжатия                             : С потерямиРазмер потока                            : 60,4 Мбайт (9%)Выравнивание                             : Разделение по промежуткамПродолжительность промежутка             : 40  мс. (1,00 видеокадр)Время предзагрузки промежутка            : 500  мс.

Скриншоты


To download the content you need:
1. Download and install torrent client [for Windows] or for mobile system
2. Click on [Download]
Attention.
If the test YOU are NOT a ROBOT - does not work, then You are using an outdated browser.
Install the current browser and click on [Download]
Security: torrent client is allowed by Kaspersky.

[asmlocator.ru].t619392.torrent 
Torrent: Registered [ 2019-03-15 13:30 ] · DD9458B4EA9FA1273DFB183DAD124ACC7A1F34A4

Download .torrent

Download

14 KB

Status: checked
Completed: 1 times
Size: 1.29 GB
terms.php
[Profile] [PM]
Display posts:    
Reply to topic

Current time is: 18-Jul 20:32

All times are UTC ± 0



You cannot post new topics in this forum
You cannot reply to topics in this forum
You cannot edit your posts in this forum
You cannot delete your posts in this forum
You cannot vote in polls in this forum
You cannot attach files in this forum
You can download files in this forum