Неизведанная Европа. Засушливые территории / Wildest Europe. Arid Lands (Sarah Titcombe/Сара Тикомбе) [2016, документальный, HDTV 1080i]

Reply to topic
DL-List and Torrent activity
Size:  2.47 GB   |    Registered:  1 month 10 days   |    Completed:  2 times

Seeder not seen: 16 minutes

 
   
 
 
Author Message

star21 ®

Gender: Female

Longevity: 3 years 5 months

Posts: 552370

Location: Екатеринбург

Post 15-Mar-2019 11:20

[Quote]

Неизведанная Европа. Засушливые территории / Wildest Europe. Arid Lands Год выпуска: 2016
Страна: EU
Студия: An Off the Fence Production
Жанр: документальный
Продолжительность: 00:44:05
Перевод: Студийный (одноголосый закадровый)
Режиссер: Sarah Titcombe/Сара ТикомбеОписание: Южная Европа - температура выше 30 градусов, животные научились извлекать выгоду из засушливого климата , новые поколения по прежнему благоденствуют.Сэмпл: http://multi-up.com/1224851Тип релиза: HDTV 1080i
Контейнер: TSВидео: AVC, PAL, 1920x1080, 16x9, 7104 Кbps, 25fps
Аудио: Рус, MP2, 2Ch, 48KHz, 256kbps
Аудио 2: Eng, MP2, 2Ch, 48KHz, 256kbps

MediaInfo

ОбщееИдентификатор                            : 1 (0x1)Полное имя                               : H:\Неизведанная Европа (Засушливые территории).tsФормат                                   : MPEG-TSРазмер файла                             : 2,47 ГбайтПродолжительность                        : 44 м. 5 с.Режим общего битрейта                    : ПеременныйОбщий поток                              : 8017 Кбит/секВидеоИдентификатор                            : 256 (0x100)Идентификатор меню                       : 1 (0x1)Формат                                   : AVCФормат/Информация                        : Advanced Video CodecПрофиль формата                          : High@L4Настройки формата                        : CABAC / 4 Ref FramesПараметр CABAC формата                   : ДаПараметр RefFrames формата               : 4 кадраИдентификатор кодека                     : 27Продолжительность                        : 44 м. 5 с.Битрейт                                  : 7104 Кбит/секШирина                                   : 1920 пикселейВысота                                   : 1080 пикселейСоотношение сторон                       : 16:9Частота кадров                           : 25,000 кадров/секСтандарт вещания                         : ComponentЦветовое пространство                    : YUVСубдискретизация насыщенности            : 4:2:0Битовая глубина                          : 8 битТип развёртки                            : ЧересстрочнаяМетод сохранения типа развёртки          : Раздельные поляПорядок развёртки                        : Верхнее поле первоеБит/(Пиксели*Кадры)                      : 0.137Размер потока                            : 2,19 Гбайт (89%)Цветовой диапазон                        : LimitedОсновные цвета                           : BT.709Характеристики трансфера                 : BT.709Коэффициенты матрицы                     : BT.709Аудио #1Идентификатор                            : 257 (0x101)Идентификатор меню                       : 1 (0x1)Формат                                   : MPEG AudioВерсия формата                           : Version 1Профиль формата                          : Layer 2Идентификатор кодека                     : 3Продолжительность                        : 44 м. 5 с.Вид битрейта                             : ПостоянныйБитрейт                                  : 256 Кбит/секКаналы                                   : 2 каналаЧастота                                  : 48,0 КГцЧастота кадров                           : 41,667 кадра/сек (1152 SPF)Метод сжатия                             : С потерямиЗадержка видео                           : -120 мс.Размер потока                            : 80,7 Мбайт (3%)Язык                                     : RussianАудио #2Идентификатор                            : 258 (0x102)Идентификатор меню                       : 1 (0x1)Формат                                   : MPEG AudioВерсия формата                           : Version 1Профиль формата                          : Layer 2Идентификатор кодека                     : 3Продолжительность                        : 44 м. 5 с.Вид битрейта                             : ПостоянныйБитрейт                                  : 256 Кбит/секКаналы                                   : 2 каналаЧастота                                  : 48,0 КГцЧастота кадров                           : 41,667 кадра/сек (1152 SPF)Метод сжатия                             : С потерямиЗадержка видео                           : -120 мс.Размер потока                            : 80,7 Мбайт (3%)Язык                                     : English

Скриншоты


To download the content you need:
1. Download and install torrent client [for Windows] or for mobile system
2. Click on [Download]
Attention.
If the test YOU are NOT a ROBOT - does not work, then You are using an outdated browser.
Install the current browser and click on [Download]
Security: torrent client is allowed by Kaspersky.

[asmlocator.ru].t619354.torrent 
Torrent: Registered [ 2019-03-15 11:20 ] · 338D8E1A34C27C733EE71B510E54E0DDDF2F74A6

Download .torrent

Download

13 KB

Status: checked
Completed: 2 times
Size: 2.47 GB
terms.php
[Profile] [PM]
Display posts:    
Reply to topic

Current time is: 25-Apr 14:51

All times are UTC ± 0



You cannot post new topics in this forum
You cannot reply to topics in this forum
You cannot edit your posts in this forum
You cannot delete your posts in this forum
You cannot vote in polls in this forum
You cannot attach files in this forum
You can download files in this forum