Verdi Gala - Greatest Opera Arias by Giuseppe Verdi [2001, Opera, vokal, DVDRip]

Ответить на тему
Статистика раздачи
Размер:  4,97 GB   |    Зарегистрирован:  7 месяцев 14 дней   |    Скачан:  4 раза

Полного источника не было: 1 день 17 часов

 
   
 
 
Автор Сообщение

star21 ®

Пол: Женский

Стаж: 3 года 11 месяцев

Сообщений: 551988

Откуда: Екатеринбург

Создавать темы 07-Мар-2019 14:00

[Цитировать]

Verdi Gala - Greatest Opera Arias by Giuseppe Verdi
Год выпуска: 2001
Жанр: Opera, vokal
Продолжительность: 1 disc-01:25:14 / 2 disc-01:34:54
Исполнители: Jose Carreras, Marcello Alvarez, Luca Casalin, Jose Cura, Daniela Dessi, Mariella Devia, Luciana D'Intino, Placido Domingo, Luca Dordolo, Granlua Floris, Barbara Frittoli, Konstantin Gorny, Leo Nucci, Elisabete Matos, Ruggero Raimondi, Rossana Rinaldi Cinzia Rizzione, Gloria Scalchi, Riccardo Zanellato
Дирижёр:Zubin MehtaДоп. информация: Рип сделан в далеком 2012 году, с Verdi Gala - Greatest Opera Arias by Giuseppe Verdi.
Исходник был разобран на дорожки, видео оцифровано заново, в результирующие файлы добавлена без изменений оригинальная звуковая дорожка (только формата Dolby AC3 48000Hz 6ch 448kbps). Проведена синхронизация. Причины рассинхронизации мне не известны, могу лишь предположить, что исходный рип был проведен с потерями: например, рассинхронизация оригинальной дорожки AC3 была порядка 3 сек, дорожки DTS (48000Hz 6ch 1536kbps) - порядка 5 секунд, а третью звуковую дорожку (48000Hz stereo 1536Kbps [LPCM]) вообще не удалось извлечь из оригинала.
Треклист:

DISC 1

NABUCCO
Va, pensiero, sul'ali dorate
JERUSALEM
Deu nous separe
Il Corsaro
Ecco mi prigioniero
La terra inciel m' abborrino
RIGOLETTO
La donna e mobile
Quartetto: - Un di, se ben rammentomi...
Bella figlia del amore
IL TROVATORE
Scena, Romanza e Terzetto:
Tace la notte!... Deserto sulla terra...
Non m'inganno. Ella scende!
Finale Ultimo: - Madre non dormi?
LA TRAVIATA
Scena ed Aria: E strano!... Ah fors' e lui
UN BALLO IN MASCHERA
Alzati; la tuo figlio
Eri tu che macchiavi quell'anima
Ah Morte, infamia... Ella e pura

DISC 2

LA FORZA DEL DESTINO
Aria: - Paca, pace, o mio Dio
DON CARLO
Scena e cantabile - Ella giammai m;amo
O don fatale
AIDA
Scena e romanza - Ritorna vicitor!...Numi pieta
Finale. Act II:Salvator della patria , io ti saluto
OTELLO
Gia della notte densa
Finale, Act IV:Ave Maria, piena di grazia
FALSTAFF
Tutto nel mondo e burla
NABUCCO
Va, pensiero, sul'ali dorate
Качество видео: DVDRip
Формат/Контейнер: MKV
Видео кодек: H.264
Аудио кодек: AC3
Видео поток: MPEG4 Video (H264) 720x576 (16:9) 25fps (V: h264 constrained baseline L3.0, yuv420p, 720x576)
Аудио поток: Dolby AC3 48000Hz 6ch 448kbps (A: AS3 (ac3, 48000 Hz, 5.1, 448 kb/s))

medianfo 1

General
Complete name : Greatest Opera Arias by Giuseppe Verdi.RIP.2\Greatest Opera Arias by Giuseppe Verdi_1.mkv
Format : Matroska
Format version : Version 4 / Version 2
File size : 2.35 GiB
Duration : 1h 25mn
Overall bit rate : 3 950 Kbps
Encoded date : UTC 2019-02-27 19:20:51
Writing application : mkvmerge v17.0.0 ('Be Ur Friend') 64-bit
Writing library : libebml v1.3.5 + libmatroska v1.4.8Video
ID : 1
Format : AVC
Format/Info : Advanced Video Codec
Format profile : Baseline@L3
Format settings, CABAC : No
Format settings, ReFrames : 1 frame
Format settings, GOP : M=1, N=12
Codec ID : V_MPEG4/ISO/AVC
Duration : 1h 25mn
Bit rate : 3 500 Kbps
Width : 720 pixels
Height : 576 pixels
Display aspect ratio : 16:9
Frame rate mode : Constant
Frame rate : 25.000 fps
Standard : PAL
Color space : YUV
Chroma subsampling : 4:2:0
Bit depth : 8 bits
Scan type : Progressive
Bits/(Pixel*Frame) : 0.338
Stream size : 2.08 GiB (89%)
Default : Yes
Forced : NoAudio
ID : 2
Format : AC-3
Format/Info : Audio Coding 3
Mode extension : CM (complete main)
Format settings, Endianness : Big
Codec ID : A_AC3
Duration : 1h 25mn
Bit rate mode : Constant
Bit rate : 448 Kbps
Channel(s) : 6 channels
Channel positions : Front: L C R, Side: L R, LFE
Sampling rate : 48.0 KHz
Frame rate : 31.250 fps (1536 spf)
Compression mode : Lossy
Stream size : 273 MiB (11%)
Title : AS3
Default : No
Forced : No

medianfo 2

General
Complete name : Greatest Opera Arias by Giuseppe Verdi.RIP.2\Greatest Opera Arias by Giuseppe Verdi_2.mkv
Format : Matroska
Format version : Version 4 / Version 2
File size : 2.62 GiB
Duration : 1h 34mn
Overall bit rate : 3 948 Kbps
Encoded date : UTC 2019-02-27 19:26:41
Writing application : mkvmerge v17.0.0 ('Be Ur Friend') 64-bit
Writing library : libebml v1.3.5 + libmatroska v1.4.8Video
ID : 1
Format : AVC
Format/Info : Advanced Video Codec
Format profile : Baseline@L3
Format settings, CABAC : No
Format settings, ReFrames : 1 frame
Format settings, GOP : M=1, N=12
Codec ID : V_MPEG4/ISO/AVC
Duration : 1h 34mn
Bit rate : 3 500 Kbps
Width : 720 pixels
Height : 576 pixels
Display aspect ratio : 16:9
Frame rate mode : Constant
Frame rate : 25.000 fps
Standard : PAL
Color space : YUV
Chroma subsampling : 4:2:0
Bit depth : 8 bits
Scan type : Progressive
Bits/(Pixel*Frame) : 0.338
Stream size : 2.32 GiB (89%)
Default : Yes
Forced : NoAudio
ID : 2
Format : AC-3
Format/Info : Audio Coding 3
Mode extension : CM (complete main)
Format settings, Endianness : Big
Codec ID : A_AC3
Duration : 1h 34mn
Bit rate mode : Constant
Bit rate : 448 Kbps
Channel(s) : 6 channels
Channel positions : Front: L C R, Side: L R, LFE
Sampling rate : 48.0 KHz
Frame rate : 31.250 fps (1536 spf)
Compression mode : Lossy
Delay relative to video : 22s 400ms
Stream size : 303 MiB (11%)
Title : AC3
Default : No
Forced : No

Скриншоты

Торрент обновлен, имена папки и файлов изменены, прошу перекачать

Чтобы скачать этот контент, Вам необходимо:
1. Скачать и установить торрент-клиент [клик для Windows], (для мобильного найдите на Play Маркет).
2. Кликнуть по [Скачать]


Внимание.
Если проверка ВЫ НЕ РОБОТ - не работает, значит Вы используете устаревший браузер.
Установите актуальный браузер и повторно кликните по [Скачать]
Безопасность: торрент-клиент разрешён АВ Касперского.

[asmlocator.ru].t616868.torrent 
Торрент: Зарегистрирован [ 2019-03-07 14:00 ] · 73559897BD01625DF5B9A1FD99B9369259433162

Скачать .torrent

Скачать

13 KB

Статус: проверено
Скачан: 4 раз
Размер: 4,97 GB
terms.php
[Профиль] [ЛС]
Показать сообщения:    
Ответить на тему

Текущее время: 21-Окт 14:11

Часовой пояс: UTC ± 0



Вы не можете начинать темы
Вы не можете отвечать на сообщения
Вы не можете редактировать свои сообщения
Вы не можете удалять свои сообщения
Вы не можете голосовать в опросах
Вы не можете прикреплять файлы к сообщениям
Вы можете скачивать файлы
Верим фактам, а не вранью Путина! Факт, что Правительство ведёт Россию к истреблению.
Так как численность населения падает, даже не смотря на приток эмигрантов!
Русская нация вымирает и вырождается, смешиваясь с эмигрантами!
Факт, что военных и граждан предприятий заставляют голосовать за партию Единая Россия и Путина
ПОД СТРАХОМ УВОЛЬНЕНИЯ!
Нам не нужно Правительство, блокирующее личную жизнь, интернет, нарушающее сохранность данных.
Все эти действия финансируются за счёт народа!