[TR24][OF][GM] Assassin\'s Creed Origins (by Sarah Schachner) - 2017 (Score)

Reply to topic
DL-List and Torrent activity
Size:  745 MB   |    Registered:  5 months 17 days   |    Completed:  0 times

Seeder not seen: Never

 
   
 
 
Author Message

star21 ®

Gender: Female

Longevity: 3 years 9 months

Posts: 551989

Location: Екатеринбург

Post 06-Mar-2019 09:55

[Quote]

Assassin's Creed Origins Формат записи/Источник записи: [TR24][OF][GM]
Наличие водяных знаков: Нет
Год издания/переиздания диска: 2017
Жанр: Score
Продолжительность: 01:11:45
Наличие сканов в содержимом раздачи: Только обложка альбома
Источник (релизер): qobuz
Контейнер: FLAC (*.flac)
Тип рипа: tracks
Разрядность: 24/48
Количество каналов: 2.0

Треклист

01. Assassin's Creed Origins Main Theme (3:16)
02. Return of the Medjay (2:31)
03. Bayek of Siwa (2:35)
04. The Shimmering Sands (3:08)
05. The Battle of Krokodilopolis (2:30)
06. The Tongueless Land (3:28)
07. Legions of Blood (2:38)
08. Dead Kings and Living Gods (3:20)
09. Fire in the Duat (3:18)
10. Born of the Sun (2:38)
11. Winds of Cyrene (4:08)
12. I Walk on Your Water (3:09)
13. The Order of Ancients (1:54)
14. Nomads of the White Desert (2:54)
15. Be My Eyes (1:49)
16. The Cracked Wall (1:55)
17. The Alexandrian Pleiad (3:44)
18. Desert Delirium (1:56)
19. Apep’s Vengeance (2:40)
20. Across the Dunes (2:34)
21. The Last Medjay (2:14)
22. Chthonic Invasion (1:45)
23. A Divided Land (2:17)
24. Ptolemy’s Lament (2:41)
25. The Hyena's Fire (2:51)
26. Moonlight on the Nile (1:40)
27. Ezio’s Family (Origins Version) (2:24)

foo_dr

foobar2000 1.3.3 (cdpos.biz) / Замер динамического диапазона (DR) 1.1.1Дата отчёта:  2018-12-25 12:17:07--------------------------------------------------------------------------------Анализ:   Sarah Schachner / Assassin's Creed Origins--------------------------------------------------------------------------------DR         Пики         RMS           Продолжительность трека--------------------------------------------------------------------------------DR8       -0.50 дБ   -11.53 дБ      3:16 01-Assassin's Creed Origins Main ThemeDR9       -0.50 дБ   -12.54 дБ      2:31 02-Return of the MedjayDR8       -0.50 дБ   -11.00 дБ      2:35 03-Bayek of SiwaDR9       -0.50 дБ   -13.75 дБ      3:08 04-The Shimmering SandsDR7       -0.49 дБ    -9.26 дБ      2:30 05-The Battle of KrokodilopolisDR9       -0.50 дБ   -12.62 дБ      3:28 06-The Tongueless LandDR8       -0.50 дБ   -10.45 дБ      2:38 07-Legions of BloodDR10      -0.50 дБ   -13.87 дБ      3:20 08-Dead Kings and Living GodsDR11      -0.50 дБ   -14.26 дБ      3:18 09-Fire in the DuatDR7       -0.50 дБ   -10.41 дБ      2:38 10-Born of the SunDR11      -0.50 дБ   -15.43 дБ      4:08 11-Winds of CyreneDR7       -0.50 дБ   -12.25 дБ      3:09 12-I Walk on Your WaterDR10      -0.50 дБ   -15.56 дБ      1:54 13-The Order of AncientsDR11      -0.79 дБ   -16.91 дБ      2:54 14-Nomads of the White DesertDR10      -0.50 дБ   -14.84 дБ      1:49 15-Be My EyesDR10      -0.50 дБ   -12.54 дБ      1:55 16-The Cracked WallDR10      -0.50 дБ   -14.56 дБ      3:44 17-The Alexandrian PleiadDR11      -0.50 дБ   -15.96 дБ      1:56 18-Desert DeliriumDR9       -0.50 дБ   -13.13 дБ      2:40 19-Apep’s VengeanceDR10      -0.50 дБ   -13.11 дБ      2:34 20-Across the DunesDR11      -0.50 дБ   -16.64 дБ      2:14 21-The Last MedjayDR10      -0.50 дБ   -11.83 дБ      1:45 22-Chthonic InvasionDR11      -3.10 дБ   -17.06 дБ      2:17 23-A Divided LandDR10      -0.50 дБ   -14.54 дБ      2:41 24-Ptolemy’s LamentDR9       -0.50 дБ   -10.62 дБ      2:51 25-The Hyena's FireDR10      -3.01 дБ   -17.74 дБ      1:40 26-Moonlight on the NileDR8       -0.50 дБ   -12.04 дБ      2:24 27-Ezio’s Family (Origins Version)--------------------------------------------------------------------------------Количество треков: 27Реальные значения DR: DR9Частота:  48000 ГцКаналов:  2Разрядность:   24Битрейт:  1459 кбит/сКодек:   FLAC================================================================================

To download the content you need:
1. Download and install torrent client [for Windows] or for mobile system
2. Click on [Download]
Attention.
If the test YOU are NOT a ROBOT - does not work, then You are using an outdated browser.
Install the current browser and click on [Download]
Security: torrent client is allowed by Kaspersky.

[asmlocator.ru].t616275.torrent 
Torrent: Registered [ 2019-03-06 09:55 ] · 732862B30EFBE584CADDDB264BCACA50AF9F5356

Download .torrent

Download

17 KB

Status: checked
Completed: 0 times
Size: 745 MB
terms.php
[Profile] [PM]
Display posts:    
Reply to topic

Current time is: 23-Aug 16:46

All times are UTC ± 0



You cannot post new topics in this forum
You cannot reply to topics in this forum
You cannot edit your posts in this forum
You cannot delete your posts in this forum
You cannot vote in polls in this forum
You cannot attach files in this forum
You can download files in this forum