Weird Al Yankovic - Live The Alpocalypse Tour [2011, parody, TVRip]

Ответить на тему
Статистика раздачи
Размер:  4,36 GB   |    Зарегистрирован:  7 месяцев 17 дней   |    Скачан:  1 раз

Полного источника не было: 1 день 19 часов

 
   
 
 
Автор Сообщение

star21 ®

Пол: Женский

Стаж: 3 года 11 месяцев

Сообщений: 551988

Откуда: Екатеринбург

Создавать темы 03-Мар-2019 20:25

[Цитировать]

Weird Al Yankovic - Live The Alpocalypse Tour Страна: USA
Жанр: parody
Продолжительность: 1:25:59 min
Год выпуска: 2011 г.
Лейбл: Ear Brooker InterprisesОписание:
Weird Al Yankovic
Jim West
Steve Jey
Jon ''Bermuda"Schwartz
Ruben ValtierraТреклист:
1. “Polka Face” (pop song medley)
2. “TMZ” (parody of "You Belong with Me" by Taylor Swift)
3. “Smells Like Nirvana” (parody of "Smells Like Teen Spirit" by Nirvana)
4. “Skipper Dan” (original, in the style of Weezer)
5. “Party in the CIA” (parody of "Party in the USA" by Miley Cyrus)
6. CNR (original, in the style of The White Stripes)
7. “Let Me Be Your Hog” (original, brief comedy bit)
8. “Canadian Idiot” (parody of "American Idiot" by Green Day)
9. “Wanna B Ur Lovr” (original, in the style of Beck)
10. Medley: “Money for Nothing/Beverly Hillbillies”
(parody of "The Ballad of Jed Clampett" by Jerry Scoggins and Flat Scruggs and "Money for Nothing" by Dire Straits)
“Whatever You Like” (parody of "Whatever You Like" by T.I.)
“Another Tattoo” (parody of "Nothin' on You" by B.o.B. and Bruno Mars)
“eBay” (parody of "I Want It That Way" by Backstreet Boys)
“I Want a New Duck” (parody of "I Want a New Drug" by Huey Lewis and the News)
“Theme from Rocky XIII” (parody of "Eye of the Tiger" by Survivor)
“Spam” (parody of "Stand" by R.E.M.)
“My Bologna” (parody of "My Sharona" by The Knack)
“Ode to a Superhero” (parody of "Piano Man" by Billy Joel)
“Lasagna” (parody of "La Bamba" by Ritchie Valens)
“Eat It” (parody of "Beat It" by Michael Jackson)11. “Amish Paradise” (parody of "Gangsta's Paradise" by Coolio)
12. “Craigslist” (original, in the style of The Doors)
13. “Perform This Way” (parody of "Born This Way" by Lady Gaga
14. “White & Nerdy” (parody of "Ridin'" by Chamillionaire and Krayzie Bone)
15. “Fat” (parody of "Bad" by Michael Jackson)
16. “The Saga Begins” (parody of "American Pie" by Don McLean)
17. “Yoda” (parody of "Lola" by The Kinks)Доп. информация: Концерт Weird Al Yankovic в Торонто, 16 июля 2011. Выложено для ознакомления. Всем приятного просмотра!Разбивка на главы по трекам: есть
Качество : TVRip
Формат: DVD video
Видео кодек: MPEG2
Аудио кодек: AC3
Видео: NTSC, 720x480 pixels, (16:9),23.976 fps, 7 220 Kbps
Аудио: AC-3, 192 Kbps, 2 channels

DVDinfo

Complete name             : N:\Weird Al Yankovic - Live The Alpocalypse Tour 2011\VIDEO_TS\VTS_01_1.VOBFormat                           : MPEG-PSFile size                        : 1 024 MiBDuration                         : 18mn 55sOverall bit rate                 : 7 562 KbpsVideoID                               : 224 (0xE0)Format                           : MPEG VideoFormat version                   : Version 2Format profile                   : Main@MainFormat settings, BVOP            : YesFormat settings, Matrix          : DefaultFormat settings, GOP             : M=3, N=12Duration                         : 18mn 55sBit rate mode                    : VariableBit rate                         : 7 220 KbpsMaximum bit rate                 : 9 641 KbpsWidth                            : 720 pixelsHeight                           : 480 pixelsDisplay aspect ratio             : 16:9Frame rate                       : 23.976 fpsStandard                         : NTSCColor space                      : YUVChroma subsampling               : 4:2:0Bit depth                        : 8 bitsScan type                        : ProgressiveScan order                       : 2:3 PulldownCompression mode                 : LossyBits/(Pixel*Frame)               : 0.871Stream size                      : 978 MiB (95%)AudioID                               : 189 (0xBD)-128 (0x80)Format                           : AC-3Format/Info                      : Audio Coding 3Mode extension                   : CM (complete main)Muxing mode                      : DVD-VideoDuration                         : 18mn 55sBit rate mode                    : ConstantBit rate                         : 192 KbpsChannel(s)                       : 2 channelsChannel positions                : Front: L RSampling rate                    : 48.0 KHzBit depth                        : 16 bitsCompression mode                 : LossyDelay relative to video          : -42msStream size                      : 26.0 MiB (3%)

Скриншоты меню

Чтобы скачать этот контент, Вам необходимо:
1. Скачать и установить торрент-клиент [клик для Windows], (для мобильного найдите на Play Маркет).
2. Кликнуть по [Скачать]


Внимание.
Если проверка ВЫ НЕ РОБОТ - не работает, значит Вы используете устаревший браузер.
Установите актуальный браузер и повторно кликните по [Скачать]
Безопасность: торрент-клиент разрешён АВ Касперского.

[asmlocator.ru].t615666.torrent 
Торрент: Зарегистрирован [ 2019-03-03 20:25 ] · 9A4687AE535817DCE28ECA2F4073BF99A2CEF0F0

Скачать .torrent

Скачать

23 KB

Статус: проверено
Скачан: 1 раз
Размер: 4,36 GB
terms.php
[Профиль] [ЛС]
Показать сообщения:    
Ответить на тему

Текущее время: 21-Окт 16:48

Часовой пояс: UTC ± 0



Вы не можете начинать темы
Вы не можете отвечать на сообщения
Вы не можете редактировать свои сообщения
Вы не можете удалять свои сообщения
Вы не можете голосовать в опросах
Вы не можете прикреплять файлы к сообщениям
Вы можете скачивать файлы
Верим фактам, а не вранью Путина! Факт, что Правительство ведёт Россию к истреблению.
Так как численность населения падает, даже не смотря на приток эмигрантов!
Русская нация вымирает и вырождается, смешиваясь с эмигрантами!
Факт, что военных и граждан предприятий заставляют голосовать за партию Единая Россия и Путина
ПОД СТРАХОМ УВОЛЬНЕНИЯ!
Нам не нужно Правительство, блокирующее личную жизнь, интернет, нарушающее сохранность данных.
Все эти действия финансируются за счёт народа!