(Thrash Metal) [WEB] Megadeth - The World Needs a Hero [Remaster] - 2001/2019, FLAC (tracks), lossless

Reply to topic
DL-List and Torrent activity
Size:  429 MB   |    Registered:  4 months 16 days   |    Completed:  0 times

Seeder not seen: 40 minutes

 
   
 
 
Author Message

star21 ®

Gender: Female

Longevity: 3 years 8 months

Posts: 552042

Location: Екатеринбург

Post 02-Mar-2019 01:20

[Quote]

Megadeth - The World Needs a Hero Жанр: Thrash Metal
Носитель: WEB
Год издания: 2019
Издатель-лейбл: Sanctuary Records
Страна исполнителя: US
Аудиокодек: FLAC (*.flac)
Тип рипа: tracks
Битрейт аудио: lossless
Продолжительность: 01:00:32
Источник: Сеть
Наличие сканов: нетТреклист:01. Disconnect (5:20)
02. The World Needs A Hero (3:52)
03. Moto Psycho (3:06)
04. 1000 Times Goodbye (6:26)
05. Burning Bridges (5:20)
06. Promises (4:29)
07. Recipe For Hate... Warhorse (5:19)
08. Losing My Senses (4:41)
09. Dread And The Fugitive Mind (4:25)
10. Silent Scorn (1:43)
11. Return To Hangar (4:00)
12. When (9:14)
13. Coming Home (Japan Edit) (2:37)

auCDtect

CUE Corrector v. 8.3.5 / b. 905 (Jan. 31, 2019)————————————————————————————————————————————————————————————————————————Megadeth / The World Needs A Hero (2019 - Remaster)Folder: Megadeth - 2001 - The World Needs a Hero (2019 Remaster) [FLAC]Audio files:    01 Disconnect.flac [05:20.453; FLAC • 1033 kbps • 16 bit \ 44100 Hz • stereo; 39.47 MB (41 390 627 B)]    02 The World Needs A Hero.flac [03:51.987; FLAC • 1026 kbps • 16 bit \ 44100 Hz • stereo; 28.38 MB (29 755 881 B)]    03 Moto Psycho.flac [03:06.253; FLAC • 1034 kbps • 16 bit \ 44100 Hz • stereo; 22.97 MB (24 082 082 B)]    04 1000 Times Goodbye.flac [06:25.600; FLAC • 1016 kbps • 16 bit \ 44100 Hz • stereo; 46.72 MB (48 994 255 B)]    05 Burning Bridges.flac [05:20.160; FLAC • 1000 kbps • 16 bit \ 44100 Hz • stereo; 38.18 MB (40 032 212 B)]    06 Promises.flac [04:28.733; FLAC • 991 kbps • 16 bit \ 44100 Hz • stereo; 31.77 MB (33 310 741 B)]    07 Recipe For Hate... Warhorse.flac [05:19.200; FLAC • 1013 kbps • 16 bit \ 44100 Hz • stereo; 38.58 MB (40 455 013 B)]    08 Losing My Senses.flac [04:40.573; FLAC • 974 kbps • 16 bit \ 44100 Hz • stereo; 32.60 MB (34 181 450 B)]    09 Dread And The Fugitive Mind.flac [04:25.133; FLAC • 1029 kbps • 16 bit \ 44100 Hz • stereo; 32.53 MB (34 108 156 B)]    10 Silent Scorn.flac [01:43.027; FLAC • 810 kbps • 16 bit \ 44100 Hz • stereo; 9.95 MB (10 434 845 B)]    11 Return To Hangar.flac [03:59.640; FLAC • 1049 kbps • 16 bit \ 44100 Hz • stereo; 29.98 MB (31 436 320 B)]    12 When.flac [09:13.800; FLAC • 916 kbps • 16 bit \ 44100 Hz • stereo; 60.51 MB (63 449 384 B)]    13 Coming Home (Japan Edit).flac [02:37.253; FLAC • 918 kbps • 16 bit \ 44100 Hz • stereo; 17.21 MB (18 051 196 B)]Accuracy: -m0File 01 Disconnect                  -  95% MPEG [05:20:34]File 02 The World Needs A Hero      - 100% CDDA [03:51:74]File 03 Moto Psycho                 - 100% CDDA [03:06:19]File 04 1000 Times Goodbye          - 100% CDDA [06:25:45]File 05 Burning Bridges             -  95% MPEG [05:20:12]File 06 Promises                    - 100% CDDA [04:28:55]File 07 Recipe For Hate... Warhorse -  95% MPEG [05:19:15]File 08 Losing My Senses            -  95% MPEG [04:40:43]File 09 Dread And The Fugitive Mind -  95% MPEG [04:25:10]File 10 Silent Scorn                - 100% CDDA [01:43:02]File 11 Return To Hangar            - 100% CDDA [03:59:48]File 12 When                        -  95% MPEG [09:13:60]File 13 Coming Home (Japan Edit)    - 100% CDDA [02:37:19]————— Summary: —————These tracks looks like CDDA with probability 100%.————————————————————————————————————————————————————————————————————————
 
ANALYZER:    auCDtect: CD records authenticity detector, version 0.8.2    Copyright (c) 2004 Oleg Berngardt. All rights reserved.    Copyright (c) 2004 Alexander Djourik. All rights reserved.Time elapsed: 3 m 08 sLog created at February 15, 2019 01:40:17=== D82BAD2EE8302B603735A07E0C9E5DA7EFD7834935A38D26B4BDC17389CBDA05 ===foobar2000 1.4.1 / Замер динамического диапазона (DR) 1.1.1

CUETools

[CUETools log; Date: 15.02.2019 1:36:37; Version: 2.1.6][CTDB TOCID: 1kEE2yxP0ZbgAHH58B5pEi1kl34-] disk not present in database.[AccurateRip ID: 001d3617-0123c34b-a10e2f0d] disk not present in database.Track Peak [ CRC32  ] [W/O NULL] --   98,6 [5AD1BFC2] [0F7F9B98] 01   98,6 [FD30A4A3] [4C1D21A8] 02   98,6 [C84E2B1C] [FF0F39FE] 03   98,6 [3F2ABB6F] [366EF323] 04   98,6 [266EBBF3] [E9972CA7] 05   98,6 [17D9007F] [A4A5DD2D] 06   98,6 [88D35ABE] [8A051949] 07   98,6 [D39EF356] [B45149D8] 08   98,6 [959424F1] [28400D48] 09   98,6 [CB6002D3] [CF166207] 10   98,6 [E638EBE7] [1C75BE48] 11   98,6 [446F233F] [70CFB7EB] 12   98,6 [A66ECC3A] [945E8415] 13   98,6 [02A282CA] [7A1470AF]

DR

foobar2000 1.4.1 / Замер динамического диапазона (DR) 1.1.1Дата отчёта:  2019-02-15 01:36:15--------------------------------------------------------------------------------Анализ:   Megadeth / The World Needs A Hero (2019 - Remaster)--------------------------------------------------------------------------------DR         Пики         RMS           Продолжительность трека--------------------------------------------------------------------------------DR5       -0.12 дБ    -6.19 дБ      5:20 01-DisconnectDR5       -0.12 дБ    -6.19 дБ      3:52 02-The World Needs A HeroDR5       -0.12 дБ    -6.32 дБ      3:06 03-Moto PsychoDR5       -0.12 дБ    -6.09 дБ      6:26 04-1000 Times GoodbyeDR6       -0.12 дБ    -7.01 дБ      5:20 05-Burning BridgesDR6       -0.12 дБ    -8.73 дБ      4:29 06-PromisesDR5       -0.12 дБ    -7.01 дБ      5:19 07-Recipe For Hate... WarhorseDR6       -0.12 дБ    -7.86 дБ      4:41 08-Losing My SensesDR7       -0.12 дБ    -7.53 дБ      4:25 09-Dread And The Fugitive MindDR11      -0.12 дБ   -13.15 дБ      1:43 10-Silent ScornDR6       -0.12 дБ    -6.86 дБ      4:00 11-Return To HangarDR6       -0.12 дБ    -8.43 дБ      9:14 12-WhenDR7       -0.12 дБ    -9.10 дБ      2:37 13-Coming Home (Japan Edit)--------------------------------------------------------------------------------Количество треков: 13Реальные значения DR: DR6Частота:   44100 ГцКаналов:   2Разрядность:   16Битрейт:   913 кбит/сКодек:   FLAC================================================================================

To download the content you need:
1. Download and install torrent client [for Windows] or for mobile system
2. Click on [Download]
Attention.
If the test YOU are NOT a ROBOT - does not work, then You are using an outdated browser.
Install the current browser and click on [Download]
Security: torrent client is allowed by Kaspersky.

[asmlocator.ru].t614877.torrent 
Torrent: Registered [ 2019-03-02 01:20 ] · 77F1A343E840B9A5716EAA7E47B4719D2EC43506

Download .torrent

Download

18 KB

Status: checked
Completed: 0 times
Size: 429 MB
terms.php
[Profile] [PM]
Display posts:    
Reply to topic

Current time is: 18-Jul 05:45

All times are UTC ± 0



You cannot post new topics in this forum
You cannot reply to topics in this forum
You cannot edit your posts in this forum
You cannot delete your posts in this forum
You cannot vote in polls in this forum
You cannot attach files in this forum
You can download files in this forum