[SACD-R][OF] The Hues Corporation - Rockin\' Soul & Love Corporation - 1974, 1975/2018 (Funk, Soul, Disco)

Ответить на тему
Статистика раздачи
Размер:  3,05 GB   |    Зарегистрирован:  7 месяцев 20 дней   |    Скачан:  1 раз

Полного источника не было: 1 день 17 часов

 
   
 
 
Автор Сообщение

star21 ®

Пол: Женский

Стаж: 3 года 11 месяцев

Сообщений: 551988

Откуда: Екатеринбург

Создавать темы 28-Фев-2019 21:10

[Цитировать]

The Hues Corporation / Rockin' Soul & Love Corporation Формат записи/Источник записи: [SACD-R][OF]
Наличие водяных знаков: Нет
Год издания/переиздания диска: 1974, 1975/2018
Жанр: Funk, Soul, Disco
Издатель (лейбл): Vocalion ‎– CDSML 8539
Продолжительность: 67:05
Наличие сканов в содержимом раздачи: Да (сканы)Треклист: Rockin' Soul 1974
1-Rockin Soul
2-How I Wish We Could Do it Again
3-Were Keepin Our Business Together
4-Ease On Down the Road from the musical The Wiz
5-I Got Caught Dancing Again
6-Loves There
7-Rock the Boat
8-Ill Take a Melody
9-No End in Sight Love Corporation 1975
10-Into My Music
11-One Good Night Together
12-Follow the Spirit
13-Long Road
14-Gold Rush
15-He s My Home
16-When You Look Down the Road
17-You Showed Me What Love Is
18-Love Corporation
19-Sing to Your Song
20-Soul SailinКонтейнер: ISO (*.iso)
Тип рипа: imageРазрядность: 64(2,8 MHz/1 Bit)
Формат: DST64
Количество каналов: 2.0. 5.1

Лог проверки качества

foobar2000 1.3.3 (cdpos.biz) / Dynamic Range Meter 1.1.1--------------------------------------------------------------------------------Analyzed: Hues Corporation / Rockin Soul & Love Corporation--------------------------------------------------------------------------------DR         Peak         RMS     Duration Track--------------------------------------------------------------------------------DR9       -6.39 dB   -25.05 dB      2:56 1-Rockin SoulDR9       -6.32 dB   -27.33 dB      3:01 2-How I Wish We Could Do it AgainDR9       -6.68 dB   -26.46 dB      2:45 3-Were Keepin Our Business TogetherDR9       -7.44 dB   -26.91 dB      3:28 4-Ease On Down the Road  from the musical The WizDR9       -6.63 dB   -26.44 dB      3:19 5-I Got Caught Dancing AgainDR9       -6.18 dB   -25.21 dB      3:00 6-Loves ThereDR9       -6.71 dB   -25.80 dB      3:06 7-Rock the BoatDR10      -6.05 dB   -27.42 dB      3:31 8-Ill Take a MelodyDR9       -6.52 dB   -26.01 dB      2:13 9-No End in SightDR9       -7.44 dB   -26.24 dB      3:33 10-Into My MusicDR9       -7.65 dB   -26.25 dB      3:23 11-One Good Night TogetherDR9       -6.64 dB   -25.91 dB      3:03 12-Follow the SpiritDR8       -7.35 dB   -26.86 dB      4:03 13-Long RoadDR8       -8.17 dB   -26.36 dB      3:50 14-Gold RushDR8       -7.91 dB   -27.12 dB      4:22 15-He s My HomeDR8       -6.78 dB   -25.73 dB      4:45 16-When You Look Down the RoadDR7       -9.21 dB   -24.17 dB      3:00 17-You Showed Me What Love IsDR9       -8.57 dB   -26.04 dB      3:15 18-Love CorporationDR8       -7.97 dB   -25.66 dB      3:22 19-Sing to Your SongDR9       -7.41 dB   -27.78 dB      3:41 20-Soul Sailin--------------------------------------------------------------------------------Number of tracks:  20Official DR value: DR9Samplerate:        88200 HzChannels:          6Bits per sample:   24Bitrate:           12700 kbpsCodec:             PCM================================================================================foobar2000 1.3.3 (cdpos.biz) / Dynamic Range Meter 1.1.1--------------------------------------------------------------------------------Analyzed: Hues Corporation / Rockin Soul & Love Corporation--------------------------------------------------------------------------------DR         Peak         RMS     Duration Track--------------------------------------------------------------------------------DR13      -6.04 dB   -21.67 dB      2:56 1-Rockin SoulDR12      -7.22 dB   -22.44 dB      3:01 2-How I Wish We Could Do it AgainDR12      -6.03 dB   -20.42 dB      2:45 3-Were Keepin Our Business TogetherDR11      -8.82 dB   -21.94 dB      3:28 4-Ease On Down the Road  from the musical The WizDR12      -6.21 dB   -22.58 dB      3:19 5-I Got Caught Dancing AgainDR11      -7.22 dB   -20.58 dB      3:00 6-Loves ThereDR11      -6.45 dB   -19.76 dB      3:06 7-Rock the BoatDR12      -6.04 dB   -21.22 dB      3:31 8-Ill Take a MelodyDR11      -7.19 dB   -21.19 dB      2:13 9-No End in SightDR12      -6.05 dB   -21.00 dB      3:33 10-Into My MusicDR13      -6.35 dB   -22.42 dB      3:23 11-One Good Night TogetherDR14      -6.07 dB   -21.80 dB      3:03 12-Follow the SpiritDR13      -7.42 dB   -23.62 dB      4:03 13-Long RoadDR12      -6.28 dB   -22.52 dB      3:50 14-Gold RushDR13      -6.35 dB   -22.88 dB      4:22 15-He s My HomeDR12      -7.60 dB   -22.27 dB      4:45 16-When You Look Down the RoadDR13      -6.39 dB   -20.90 dB      3:00 17-You Showed Me What Love IsDR13      -6.05 dB   -20.88 dB      3:15 18-Love CorporationDR12      -6.56 dB   -21.91 dB      3:22 19-Sing to Your SongDR13      -6.05 dB   -23.95 dB      3:41 20-Soul Sailin--------------------------------------------------------------------------------Number of tracks:  20Official DR value: DR12Samplerate:        88200 HzChannels:          2Bits per sample:   24Bitrate:           4233 kbpsCodec:             PCM================================================================================
Источник (релизер): https://www.discogs.com/The-Hues-Corporation-Rockin-Soul-Love-Corporation/release/11979331

Чтобы скачать этот контент, Вам необходимо:
1. Скачать и установить торрент-клиент [клик для Windows], (для мобильного найдите на Play Маркет).
2. Кликнуть по [Скачать]


Внимание.
Если проверка ВЫ НЕ РОБОТ - не работает, значит Вы используете устаревший браузер.
Установите актуальный браузер и повторно кликните по [Скачать]
Безопасность: торрент-клиент разрешён АВ Касперского.

[asmlocator.ru].t614212.torrent 
Торрент: Зарегистрирован [ 2019-02-28 21:10 ] · DD26BBFE7C071CE4753B58480516E2AD3E902C1A

Скачать .torrent

Скачать

16 KB

Статус: проверено
Скачан: 1 раз
Размер: 3,05 GB
terms.php
[Профиль] [ЛС]
Показать сообщения:    
Ответить на тему

Текущее время: 21-Окт 14:12

Часовой пояс: UTC ± 0



Вы не можете начинать темы
Вы не можете отвечать на сообщения
Вы не можете редактировать свои сообщения
Вы не можете удалять свои сообщения
Вы не можете голосовать в опросах
Вы не можете прикреплять файлы к сообщениям
Вы можете скачивать файлы
Верим фактам, а не вранью Путина! Факт, что Правительство ведёт Россию к истреблению.
Так как численность населения падает, даже не смотря на приток эмигрантов!
Русская нация вымирает и вырождается, смешиваясь с эмигрантами!
Факт, что военных и граждан предприятий заставляют голосовать за партию Единая Россия и Путина
ПОД СТРАХОМ УВОЛЬНЕНИЯ!
Нам не нужно Правительство, блокирующее личную жизнь, интернет, нарушающее сохранность данных.
Все эти действия финансируются за счёт народа!