(Acid Jazz) [CD] Federation - Flower To The Sun - 1994, FLAC (tracks+.cue), lossless

Reply to topic
DL-List and Torrent activity
Size:  381 MB   |    Registered:  5 months 19 days   |    Completed:  0 times

Seeder not seen: Never

 
   
 
 
Author Message

star21 ®

Gender: Female

Longevity: 3 years 9 months

Posts: 551989

Location: Екатеринбург

Post 25-Feb-2019 13:40

[Quote]

Federation / Flower To The Sun Жанр: Acid Jazz
Носитель: CD
Страна-производитель диска (релиза): UK
Год издания: 1994
Издатель (лейбл): Mo Wax ‎
Номер по каталогу: MW CD-002
Аудиокодек: FLAC (*.flac)
Тип рипа: tracks+.cue
Битрейт аудио: lossless
Продолжительность: 00:54:55
Источник: локальная сеть
Наличие сканов в содержимом раздачи: нет
Треклист:
1 Like I Feel 5:17
2 Can U Feel It 5:53
3 Hold On 6:45
4 Realise 4:51
5 Rusty James 4:57
6 A Night In Chew Magna 3:38
7 Life So Free (Party Rockin Remix) 7:05
8 Keep Pushing 4:52
9 Shine 5:55
10 If We Had It All 5:48

Лог создания рипа

X Lossless Decoder version 20130407 (143.0)XLD extraction logfile from 1969-12-31 19:09:45 -0500Federation / Flower To The SunUsed drive : MATSHITA DVD-R   UJ-835E (revision GAND)Media type : Pressed CDRipper mode             : CDParanoia III 10.2Disable audio cache     : OK for the drive with a cache less than 2750KiBMake use of C2 pointers : NORead offset correction  : 667Max retry count         : 100Gap status              : Analyzed, Appended (except HTOA)TOC of the extracted CD     Track |   Start  |  Length  | Start sector | End sector    ---------------------------------------------------------        1  | 00:00:32 | 05:17:30 |        32    |    23836        2  | 05:17:62 | 05:53:08 |     23837    |    50319        3  | 11:10:70 | 06:44:52 |     50320    |    80671        4  | 17:55:47 | 04:50:68 |     80672    |   102489        5  | 22:46:40 | 04:56:67 |    102490    |   124756        6  | 27:43:32 | 03:37:68 |    124757    |   141099        7  | 31:21:25 | 07:05:00 |    141100    |   172974        8  | 38:26:25 | 04:51:55 |    172975    |   194854        9  | 43:18:05 | 05:55:20 |    194855    |   221499       10  | 49:13:25 | 05:47:57 |    221500    |   247581AccurateRip Summary    Disc not found in AccurateRip DB.All Tracks    Album gain               : -4.32 dB    Peak                     : 1.000000    Statistics        Read error                           : 0        Skipped (treated as error)           : 0        Edge jitter error (maybe fixed)      : 0        Atom jitter error (maybe fixed)      : 0        Drift error (maybe fixed)            : 0        Dropped bytes error (maybe fixed)    : 0        Duplicated bytes error (maybe fixed) : 0Track 01    Filename : /Applications/New!/01 Federation - Like I Feel.flac               /Applications/New!/01 Federation - Like I Feel(LAME MP3 (VBR-new quality 2.0)).mp3               /Applications/New!/01 Federation - Like I Feel(LAME MP3 (VBR-new quality 0.0)).mp3               /Applications/New!/01 Federation - Like I Feel(LAME MP3 (CBR 320kbps)).mp3    Pre-gap length : 00:02:32    Track gain               : -5.50 dB    Peak                     : 1.000000    CRC32 hash (test run)    : 3F2696D7    CRC32 hash               : 3F2696D7    CRC32 hash (skip zero)   : F24470C1    AccurateRip v1 signature : 4B1E3087    AccurateRip v2 signature : B6F9BC7C        ->Track not present in AccurateRip database.    Statistics        Read error                           : 0        Skipped (treated as error)           : 0        Edge jitter error (maybe fixed)      : 0        Atom jitter error (maybe fixed)      : 0        Drift error (maybe fixed)            : 0        Dropped bytes error (maybe fixed)    : 0        Duplicated bytes error (maybe fixed) : 0        Inconsistency in error sectors       : 0Track 02    Filename : /Applications/New!/02 Federation - Can You Feel It.flac               /Applications/New!/02 Federation - Can You Feel It(LAME MP3 (VBR-new quality 2.0)).mp3               /Applications/New!/02 Federation - Can You Feel It(LAME MP3 (VBR-new quality 0.0)).mp3               /Applications/New!/02 Federation - Can You Feel It(LAME MP3 (CBR 320kbps)).mp3    Pre-gap length : 00:02:05    Track gain               : -5.60 dB    Peak                     : 1.000000    CRC32 hash (test run)    : E79FE0EE    CRC32 hash               : E79FE0EE    CRC32 hash (skip zero)   : 5F4D9314    AccurateRip v1 signature : ED21F0F1    AccurateRip v2 signature : 03F74512        ->Track not present in AccurateRip database.    Statistics        Read error                           : 0        Skipped (treated as error)           : 0        Edge jitter error (maybe fixed)      : 0        Atom jitter error (maybe fixed)      : 0        Drift error (maybe fixed)            : 0        Dropped bytes error (maybe fixed)    : 0        Duplicated bytes error (maybe fixed) : 0        Inconsistency in error sectors       : 0Track 03    Filename : /Applications/New!/03 Federation - Hold On.flac               /Applications/New!/03 Federation - Hold On(LAME MP3 (VBR-new quality 2.0)).mp3               /Applications/New!/03 Federation - Hold On(LAME MP3 (VBR-new quality 0.0)).mp3               /Applications/New!/03 Federation - Hold On(LAME MP3 (CBR 320kbps)).mp3    Pre-gap length : 00:05:55    Track gain               : -4.29 dB    Peak                     : 1.000000    CRC32 hash (test run)    : EBDB0ECF    CRC32 hash               : EBDB0ECF    CRC32 hash (skip zero)   : EA5FC195    AccurateRip v1 signature : 68E007C8    AccurateRip v2 signature : B98D77E9        ->Track not present in AccurateRip database.    Statistics        Read error                           : 0        Skipped (treated as error)           : 0        Edge jitter error (maybe fixed)      : 0        Atom jitter error (maybe fixed)      : 0        Drift error (maybe fixed)            : 0        Dropped bytes error (maybe fixed)    : 0        Duplicated bytes error (maybe fixed) : 0        Inconsistency in error sectors       : 0Track 04    Filename : /Applications/New!/04 Federation - Realise.flac               /Applications/New!/04 Federation - Realise(LAME MP3 (VBR-new quality 2.0)).mp3               /Applications/New!/04 Federation - Realise(LAME MP3 (VBR-new quality 0.0)).mp3               /Applications/New!/04 Federation - Realise(LAME MP3 (CBR 320kbps)).mp3    Pre-gap length : 00:03:37    Track gain               : -3.45 dB    Peak                     : 1.000000    CRC32 hash (test run)    : EE0B4C79    CRC32 hash               : EE0B4C79    CRC32 hash (skip zero)   : 6714E769    AccurateRip v1 signature : 45228477    AccurateRip v2 signature : 668162A6        ->Track not present in AccurateRip database.    Statistics        Read error                           : 0        Skipped (treated as error)           : 0        Edge jitter error (maybe fixed)      : 0        Atom jitter error (maybe fixed)      : 0        Drift error (maybe fixed)            : 0        Dropped bytes error (maybe fixed)    : 0        Duplicated bytes error (maybe fixed) : 0        Inconsistency in error sectors       : 0Track 05    Filename : /Applications/New!/05 Federation - Rusty James.flac               /Applications/New!/05 Federation - Rusty James(LAME MP3 (VBR-new quality 2.0)).mp3               /Applications/New!/05 Federation - Rusty James(LAME MP3 (VBR-new quality 0.0)).mp3               /Applications/New!/05 Federation - Rusty James(LAME MP3 (CBR 320kbps)).mp3    Pre-gap length : 00:02:20    Track gain               : -2.94 dB    Peak                     : 0.999908    CRC32 hash (test run)    : 9ED797F6    CRC32 hash               : 9ED797F6    CRC32 hash (skip zero)   : 69AC52DB    AccurateRip v1 signature : FF283DA5    AccurateRip v2 signature : 2BE75AF4        ->Track not present in AccurateRip database.    Statistics        Read error                           : 0        Skipped (treated as error)           : 0        Edge jitter error (maybe fixed)      : 0        Atom jitter error (maybe fixed)      : 0        Drift error (maybe fixed)            : 0        Dropped bytes error (maybe fixed)    : 0        Duplicated bytes error (maybe fixed) : 0        Inconsistency in error sectors       : 0Track 06    Filename : /Applications/New!/06 Federation - A Night In Chew Manga.flac               /Applications/New!/06 Federation - A Night In Chew Manga(LAME MP3 (VBR-new quality 2.0)).mp3               /Applications/New!/06 Federation - A Night In Chew Manga(LAME MP3 (VBR-new quality 0.0)).mp3               /Applications/New!/06 Federation - A Night In Chew Manga(LAME MP3 (CBR 320kbps)).mp3    Pre-gap length : 00:02:60    Track gain               : -4.54 dB    Peak                     : 1.000000    CRC32 hash (test run)    : BF74D3BA    CRC32 hash               : BF74D3BA    CRC32 hash (skip zero)   : 033CB98C    AccurateRip v1 signature : E41374A4    AccurateRip v2 signature : 7063DA01        ->Track not present in AccurateRip database.    Statistics        Read error                           : 0        Skipped (treated as error)           : 0        Edge jitter error (maybe fixed)      : 0        Atom jitter error (maybe fixed)      : 0        Drift error (maybe fixed)            : 0        Dropped bytes error (maybe fixed)    : 0        Duplicated bytes error (maybe fixed) : 0        Inconsistency in error sectors       : 0Track 07    Filename : /Applications/New!/07 Federation - Life So Free.flac               /Applications/New!/07 Federation - Life So Free(LAME MP3 (VBR-new quality 2.0)).mp3               /Applications/New!/07 Federation - Life So Free(LAME MP3 (VBR-new quality 0.0)).mp3               /Applications/New!/07 Federation - Life So Free(LAME MP3 (CBR 320kbps)).mp3    Pre-gap length : 00:04:35    Track gain               : -2.76 dB    Peak                     : 0.997223    CRC32 hash (test run)    : 3753ED71    CRC32 hash               : 3753ED71    CRC32 hash (skip zero)   : 16D817D4    AccurateRip v1 signature : D6FD91CC    AccurateRip v2 signature : 7B0F5247        ->Track not present in AccurateRip database.    Statistics        Read error                           : 0        Skipped (treated as error)           : 0        Edge jitter error (maybe fixed)      : 0        Atom jitter error (maybe fixed)      : 0        Drift error (maybe fixed)            : 0        Dropped bytes error (maybe fixed)    : 0        Duplicated bytes error (maybe fixed) : 0        Inconsistency in error sectors       : 0Track 08    Filename : /Applications/New!/08 Federation - Keep Pushing.flac               /Applications/New!/08 Federation - Keep Pushing(LAME MP3 (VBR-new quality 2.0)).mp3               /Applications/New!/08 Federation - Keep Pushing(LAME MP3 (VBR-new quality 0.0)).mp3               /Applications/New!/08 Federation - Keep Pushing(LAME MP3 (CBR 320kbps)).mp3    Pre-gap length : 00:05:58    Track gain               : -4.40 dB    Peak                     : 1.000000    CRC32 hash (test run)    : 17686697    CRC32 hash               : 17686697    CRC32 hash (skip zero)   : 3C578455    AccurateRip v1 signature : D803C0BA    AccurateRip v2 signature : FA0AE658        ->Track not present in AccurateRip database.    Statistics        Read error                           : 0        Skipped (treated as error)           : 0        Edge jitter error (maybe fixed)      : 0        Atom jitter error (maybe fixed)      : 0        Drift error (maybe fixed)            : 0        Dropped bytes error (maybe fixed)    : 0        Duplicated bytes error (maybe fixed) : 0        Inconsistency in error sectors       : 0Track 09    Filename : /Applications/New!/09 Federation - Shine.flac               /Applications/New!/09 Federation - Shine(LAME MP3 (VBR-new quality 2.0)).mp3               /Applications/New!/09 Federation - Shine(LAME MP3 (VBR-new quality 0.0)).mp3               /Applications/New!/09 Federation - Shine(LAME MP3 (CBR 320kbps)).mp3    Pre-gap length : 00:04:45    Track gain               : -4.40 dB    Peak                     : 1.000000    CRC32 hash (test run)    : FAF2A661    CRC32 hash               : FAF2A661    CRC32 hash (skip zero)   : B0DF8895    AccurateRip v1 signature : C9766BE8    AccurateRip v2 signature : 58F3053C        ->Track not present in AccurateRip database.    Statistics        Read error                           : 0        Skipped (treated as error)           : 0        Edge jitter error (maybe fixed)      : 0        Atom jitter error (maybe fixed)      : 0        Drift error (maybe fixed)            : 0        Dropped bytes error (maybe fixed)    : 0        Duplicated bytes error (maybe fixed) : 0        Inconsistency in error sectors       : 0Track 10    Filename : /Applications/New!/10 Federation - If We Had It All.flac               /Applications/New!/10 Federation - If We Had It All(LAME MP3 (VBR-new quality 2.0)).mp3               /Applications/New!/10 Federation - If We Had It All(LAME MP3 (VBR-new quality 0.0)).mp3               /Applications/New!/10 Federation - If We Had It All(LAME MP3 (CBR 320kbps)).mp3    Pre-gap length : 00:07:50    Track gain               : -3.79 dB    Peak                     : 0.999969    CRC32 hash (test run)    : 081BDD5D    CRC32 hash               : 081BDD5D    CRC32 hash (skip zero)   : 5C1CA821    AccurateRip v1 signature : F05FF664    AccurateRip v2 signature : 9F36DD85        ->Track not present in AccurateRip database.    Statistics        Read error                           : 0        Skipped (treated as error)           : 0        Edge jitter error (maybe fixed)      : 0        Atom jitter error (maybe fixed)      : 0        Drift error (maybe fixed)            : 0        Dropped bytes error (maybe fixed)    : 0        Duplicated bytes error (maybe fixed) : 0        Inconsistency in error sectors       : 0No errors occurredEnd of status report

Содержание индексной карты (.CUE)

TITLE "Flower To The Sun"PERFORMER "Federation"REM GENRE "Easy Listening"REM DATE "1994"REM DISCNUMBER 1REM TOTALDISCS 1REM DISCID 8F0CE50AREM REPLAYGAIN_ALBUM_GAIN -4.32 dBREM REPLAYGAIN_ALBUM_PEAK 1.000000FILE "01 Federation - Like I Feel.wav" WAVE  TRACK 01 AUDIO    TITLE "Like I Feel"    REM REPLAYGAIN_TRACK_GAIN -5.50 dB    REM REPLAYGAIN_TRACK_PEAK 1.000000    PREGAP 00:00:32    INDEX 01 00:00:00  TRACK 02 AUDIO    TITLE "Can You Feel It"    REM REPLAYGAIN_TRACK_GAIN -5.60 dB    REM REPLAYGAIN_TRACK_PEAK 1.000000    INDEX 00 05:15:25FILE "02 Federation - Can You Feel It.wav" WAVE    INDEX 01 00:00:00  TRACK 03 AUDIO    TITLE "Hold On"    REM REPLAYGAIN_TRACK_GAIN -4.29 dB    REM REPLAYGAIN_TRACK_PEAK 1.000000    INDEX 00 05:47:28FILE "03 Federation - Hold On.wav" WAVE    INDEX 01 00:00:00  TRACK 04 AUDIO    TITLE "Realise"    REM REPLAYGAIN_TRACK_GAIN -3.45 dB    REM REPLAYGAIN_TRACK_PEAK 1.000000    INDEX 00 06:41:15FILE "04 Federation - Realise.wav" WAVE    INDEX 01 00:00:00  TRACK 05 AUDIO    TITLE "Rusty James"    REM REPLAYGAIN_TRACK_GAIN -2.94 dB    REM REPLAYGAIN_TRACK_PEAK 0.999908    INDEX 00 04:48:48FILE "05 Federation - Rusty James.wav" WAVE    INDEX 01 00:00:00  TRACK 06 AUDIO    TITLE "A Night In Chew Manga"    REM REPLAYGAIN_TRACK_GAIN -4.54 dB    REM REPLAYGAIN_TRACK_PEAK 1.000000    INDEX 00 04:54:07FILE "06 Federation - A Night In Chew Manga.wav" WAVE    INDEX 01 00:00:00  TRACK 07 AUDIO    TITLE "Life So Free"    REM REPLAYGAIN_TRACK_GAIN -2.76 dB    REM REPLAYGAIN_TRACK_PEAK 0.997223    INDEX 00 03:33:33FILE "07 Federation - Life So Free.wav" WAVE    INDEX 01 00:00:00  TRACK 08 AUDIO    TITLE "Keep Pushing"    REM REPLAYGAIN_TRACK_GAIN -4.40 dB    REM REPLAYGAIN_TRACK_PEAK 1.000000    INDEX 00 06:59:17FILE "08 Federation - Keep Pushing.wav" WAVE    INDEX 01 00:00:00  TRACK 09 AUDIO    TITLE "Shine"    REM REPLAYGAIN_TRACK_GAIN -4.40 dB    REM REPLAYGAIN_TRACK_PEAK 1.000000    INDEX 00 04:47:10FILE "09 Federation - Shine.wav" WAVE    INDEX 01 00:00:00  TRACK 10 AUDIO    TITLE "If We Had It All"    REM REPLAYGAIN_TRACK_GAIN -3.79 dB    REM REPLAYGAIN_TRACK_PEAK 0.999969    INDEX 00 05:47:45FILE "10 Federation - If We Had It All.wav" WAVE    INDEX 01 00:00:00

To download the content you need:
1. Download and install torrent client [for Windows] or for mobile system
2. Click on [Download]
Attention.
If the test YOU are NOT a ROBOT - does not work, then You are using an outdated browser.
Install the current browser and click on [Download]
Security: torrent client is allowed by Kaspersky.

[asmlocator.ru].t613439.torrent 
Torrent: Registered [ 2019-02-25 13:40 ] · 4253C8921468C2BF4238250C077DBC53ACECE44F

Download .torrent

Download

16 KB

Status: checked
Completed: 0 times
Size: 381 MB
terms.php
[Profile] [PM]
Display posts:    
Reply to topic

Current time is: 17-Aug 11:51

All times are UTC ± 0



You cannot post new topics in this forum
You cannot reply to topics in this forum
You cannot edit your posts in this forum
You cannot delete your posts in this forum
You cannot vote in polls in this forum
You cannot attach files in this forum
You can download files in this forum