Метамфетаминовый шторм / Meth Storm (Брент Рено / Brent Renaud, Крэйг Рено / Craig Renaud) [2017, США, документальный, WEB-DL 720p] MVO (SDI Media) + Original + Sub (Rus, Eng)

Reply to topic
DL-List and Torrent activity
Size:  3.49 GB   |    Registered:  2 months 5 days   |    Completed:  0 times

Seeder not seen: Never

 
   
 
 
Author Message

star21 ®

Gender: Female

Longevity: 3 years 5 months

Posts: 552370

Location: Екатеринбург

Post 19-Feb-2019 20:16

[Quote]

Метамфетаминовый шторм | Meth Storm Год выпуска: 2017
Страна: США
Жанр: документальный
Продолжительность: 01:34:29Перевод: Профессиональный (многоголосый закадровый) | SDI MediaРежиссёр: Брент Рено, Крэйг РеноОписание: Жуткий документальный проект о том, как бедность и легкий доступ к опасному наркотику буквально убивают сельское население Арканзаса. Сегодня 90% потребляемого в Америке метамфетамина привозится в США из Мексики в форме сильнодействующего препарата ICE. Пока управление по борьбе с наркотиками воюет с крупными наркокартелями, малоимущая часть сельского населения никак не может выбраться из порочного круга. Необразованность, безработица, социальная изоляция фактически толкают людей на путь наркомании, ведь для многих из них дешевый и сильный ICE – единственное средство забыть об окружающей безнадеге. Фильм поднимает важные вопросы и призывает помочь людям, дошедшим до полного отчаяния. Качество: WEB-DL 720p | monkee
Контейнер: MKV
Видео: AVC, 1280x720 (16:9), 23.976 fps, ~4005 kbps
Аудио №1: AC3 5.1, 48 kHz, 640 kbps
Аудио №2: E-AC3 5.1, 48 kHz, 640 kbps
Субтитры: Русские, английские (SDH)Релиз: EniaHD

MediaInfo

GeneralUnique ID                      : 176231670378229870981933918799854087052 (0x8494FC305EF37272C0CE75AF6550AB8C)Complete name                  : G:\Meth.Storm.2017.720p.AMZN.WEB-DL.DD5.1.H.264-EniaHD.mkvFormat                         : MatroskaFormat version                 : Version 4 / Version 2File size                      : 3.49 GiBDuration                       : 1 h 34 minOverall bit rate mode          : VariableOverall bit rate               : 5 287 kb/sMovie name                     : Meth Storm (2017) - EniaHDEncoded date                   : UTC 2019-02-13 12:38:09Writing application            : mkvmerge v30.1.0 ('Forever And More') 64-bitWriting library                : libebml v1.3.6 + libmatroska v1.4.9VideoID                             : 1Format                         : AVCFormat/Info                    : Advanced Video CodecFormat profile                 : High@L3.1Format settings                : CABAC / 5 Ref FramesFormat settings, CABAC         : YesFormat settings, ReFrames      : 5 framesCodec ID                       : V_MPEG4/ISO/AVCDuration                       : 1 h 34 minBit rate mode                  : VariableBit rate                       : 4 005 kb/sMaximum bit rate               : 4 500 kb/sWidth                          : 1 280 pixelsHeight                         : 720 pixelsDisplay aspect ratio           : 16:9Frame rate mode                : ConstantFrame rate                     : 23.976 (24000/1001) FPSColor space                    : YUVChroma subsampling             : 4:2:0Bit depth                      : 8 bitsScan type                      : ProgressiveBits/(Pixel*Frame)             : 0.181Stream size                    : 2.64 GiB (76%)Language                       : EnglishDefault                        : YesForced                         : NoColor range                    : LimitedColor primaries                : BT.709Transfer characteristics       : BT.709Matrix coefficients            : BT.709Audio #1ID                             : 2Format                         : AC-3Format/Info                    : Audio Coding 3Codec ID                       : A_AC3Duration                       : 1 h 34 minBit rate mode                  : ConstantBit rate                       : 640 kb/sChannel(s)                     : 6 channelsChannel positions              : Front: L C R, Side: L R, LFESampling rate                  : 48.0 kHzFrame rate                     : 31.250 FPS (1536 SPF)Bit depth                      : 16 bitsCompression mode               : LossyStream size                    : 433 MiB (12%)Title                          : SDI MediaLanguage                       : RussianService kind                   : Complete MainDefault                        : YesForced                         : NoAudio #2ID                             : 3Format                         : E-AC-3Format/Info                    : Enhanced Audio Coding 3Codec ID                       : A_EAC3Duration                       : 1 h 34 minBit rate mode                  : ConstantBit rate                       : 640 kb/sChannel(s)                     : 6 channelsChannel positions              : Front: L C R, Side: L R, LFESampling rate                  : 48.0 kHzFrame rate                     : 187.500 FPS (256 SPF)Compression mode               : LossyDelay relative to video        : 25 msStream size                    : 433 MiB (12%)Title                          : OriginalLanguage                       : EnglishService kind                   : Complete MainDefault                        : NoForced                         : NoText #1ID                             : 4Format                         : UTF-8Codec ID                       : S_TEXT/UTF8Codec ID/Info                  : UTF-8 Plain TextDuration                       : 1 h 32 minBit rate                       : 99 b/sCount of elements              : 1359Stream size                    : 67.7 KiB (0%)Language                       : RussianDefault                        : NoForced                         : NoText #2ID                             : 5Format                         : UTF-8Codec ID                       : S_TEXT/UTF8Codec ID/Info                  : UTF-8 Plain TextDuration                       : 1 h 33 minBit rate                       : 80 b/sCount of elements              : 1695Stream size                    : 55.4 KiB (0%)Title                          : SDHLanguage                       : EnglishDefault                        : NoForced                         : No

Скриншоты


To download the content you need:
1. Download and install torrent client [for Windows] or for mobile system
2. Click on [Download]
Attention.
If the test YOU are NOT a ROBOT - does not work, then You are using an outdated browser.
Install the current browser and click on [Download]
Security: torrent client is allowed by Kaspersky.

[asmlocator.ru].t611885.torrent 
Torrent: Registered [ 2019-02-19 20:15 ] · 721CE84EB822418EEDF8DD1C4275752ECE89D12C

Download .torrent

Download

70 KB

Status: checked
Completed: 0 times
Size: 3.49 GB
terms.php
[Profile] [PM]
Display posts:    
Reply to topic

Current time is: 25-Apr 14:52

All times are UTC ± 0



You cannot post new topics in this forum
You cannot reply to topics in this forum
You cannot edit your posts in this forum
You cannot delete your posts in this forum
You cannot vote in polls in this forum
You cannot attach files in this forum
You can download files in this forum