(Melodic Hard Rock) [CD] Devil\'s Hand (feat. Mike Slamer & Andrew Freeman) – Devil\'s Hand - 2018, FLAC (image+.cue), lossless

Reply to topic
DL-List and Torrent activity
Size:  353 MB   |    Registered:  5 months 9 days   |    Completed:  0 times

Seeder not seen: Never

 
   
 
 
Author Message

star21 ®

Gender: Female

Longevity: 3 years 8 months

Posts: 552050

Location: Екатеринбург

Post 07-Feb-2019 06:05

[Quote]

Devil's Hand (feat. Mike Slamer & Andrew Freeman) – Devil's Hand Жанр: Melodic Hard Rock
Страна-производитель диска: RU (Unofficial Release)
Год издания диска: 2018
Издатель (лейбл): Frontiers Records
Номер по каталогу: FR CD 900
Страна: USA
Аудиокодек: FLAC (*.flac)
Тип рипа: image+.cue
Битрейт аудио: lossless
Продолжительность: 00:46:44
Источник (релизер): salernitana
Наличие сканов в содержимом раздачи: даТреклист:01. We Come Alive
02. Falling In
03. One More Time
04. Another Way To Fly
05. Drive Away
06. Justified
07. Rise Above It All
08. Devil's Hand
09. Unified
10. Heartbeat Away
11. Push Comes To Shove

Лог создания рипа

Exact Audio Copy V1.3 from 2. September 2016EAC extraction logfile from 3. February 2019, 12:24Devil's Hand, Mike Slamer, Andrew Freeman  / Devil's HandUsed drive  : TSSTcorpCDDVDW SH-224DB   Adapter: 1  ID: 0Read mode               : SecureUtilize accurate stream : YesDefeat audio cache      : YesMake use of C2 pointers : NoRead offset correction                      : 6Overread into Lead-In and Lead-Out          : NoFill up missing offset samples with silence : YesDelete leading and trailing silent blocks   : NoNull samples used in CRC calculations       : YesUsed interface                              : Native Win32 interface for Win NT & 2000Used output format              : User Defined EncoderSelected bitrate                : 1024 kBit/sQuality                         : HighAdd ID3 tag                     : NoCommand line compressor         : C:\Program Files (x86)\Exact Audio Copy\win64\flac.exeAdditional command line options : -8 -V -T "ARTIST=%artist%" -T "TITLE=%title%" -T "ALBUM=%albumtitle%" -T "DATE=%year%" -T "TRACKNUMBER=%tracknr%" -T "GENRE=%genre%" -T "COMMENT=%comment%" %source% -o %dest%TOC of the extracted CD     Track |   Start  |  Length  | Start sector | End sector    ---------------------------------------------------------        1  |  0:00.00 |  4:55.56 |         0    |    22180        2  |  4:55.56 |  4:27.00 |     22181    |    42205        3  |  9:22.56 |  4:08.38 |     42206    |    60843        4  | 13:31.19 |  4:00.09 |     60844    |    78852        5  | 17:31.28 |  4:12.00 |     78853    |    97752        6  | 21:43.28 |  3:03.09 |     97753    |   111486        7  | 24:46.37 |  4:44.38 |    111487    |   132824        8  | 29:31.00 |  4:11.66 |    132825    |   151715        9  | 33:42.66 |  4:00.00 |    151716    |   169715       10  | 37:42.66 |  4:40.00 |    169716    |   190715       11  | 42:22.66 |  4:19.38 |    190716    |   210178Range status and errorsSelected range     Filename F:\Sket4er\Devil's Hand, Mike Slamer, Andrew Freeman – Devil's Hand  2018\Devil's Hand, Mike Slamer, Andrew Freeman  - Devil's Hand.wav     Peak level 100.0 %     Extraction speed 2.9 X     Range quality 99.9 %     Test CRC 0386449C     Copy CRC 0386449C     Copy OKNo errors occurredAccurateRip summaryTrack  1  cannot be verified as accurate (confidence 1)  [0C4A2F2B], AccurateRip returned [41ED4F9B]  (AR v2)Track  2  cannot be verified as accurate (confidence 1)  [CEF85752], AccurateRip returned [00BD4B3A]  (AR v2)Track  3  cannot be verified as accurate (confidence 1)  [3BC74704], AccurateRip returned [AB9521B0]  (AR v2)Track  4  cannot be verified as accurate (confidence 1)  [852178E7], AccurateRip returned [EF7CBDCC]  (AR v2)Track  5  cannot be verified as accurate (confidence 1)  [9AC8F71A], AccurateRip returned [1A17A973]  (AR v2)Track  6  cannot be verified as accurate (confidence 1)  [FCAADBEC], AccurateRip returned [D8EC3DB5]  (AR v2)Track  7  cannot be verified as accurate (confidence 1)  [7F2F017C], AccurateRip returned [FC4B384A]  (AR v2)Track  8  cannot be verified as accurate (confidence 1)  [F8B9232F], AccurateRip returned [BB09CFD3]  (AR v2)Track  9  cannot be verified as accurate (confidence 1)  [C60495A3], AccurateRip returned [5765CB89]  (AR v2)Track 10  cannot be verified as accurate (confidence 1)  [98F6EB44], AccurateRip returned [CE6473C7]  (AR v2)Track 11  cannot be verified as accurate (confidence 1)  [31713D51], AccurateRip returned [B8DB7B53]  (AR v2)No tracks could be verified as accurateYou may have a different pressing from the one(s) in the databaseEnd of status report---- CUETools DB Plugin V2.1.6[CTDB TOCID: 30018_WmjkGYBjCqtw1Vur6pK.0-] foundSubmit result: 30018_WmjkGYBjCqtw1Vur6pK.0- has been submittedTrack | CTDB Status  1   | (5/6) Differs in 84 samples @02:22:04,02:40:04  2   | (6/6) Accurately ripped  3   | (6/6) Accurately ripped  4   | (6/6) Accurately ripped  5   | (6/6) Accurately ripped  6   | (5/6) Accurately ripped  7   | (6/6) Accurately ripped  8   | (6/6) Accurately ripped  9   | (6/6) Accurately ripped 10   | (6/6) Accurately ripped 11   | (6/6) Accurately rippedIf you are sure that your rip contains errors, you can use CUETools to repair it.==== Log checksum A8A20640737BC5B7EF389BC0523CC1B4CFE39680703A1886F6DA7B231B193421 ====

Содержание индексной карты (.CUE)

REM GENRE RockREM DATE 2018REM DISCID 8D0AF20BREM COMMENT "ExactAudioCopy v1.3"PERFORMER "Devil's Hand, Mike Slamer, Andrew Freeman "TITLE "Devil's Hand "REM COMPOSER ""FILE "Devil's Hand, Mike Slamer, Andrew Freeman  - Devil's Hand.flac" WAVE  TRACK 01 AUDIO    TITLE "We Come Alive"    PERFORMER "Devil's Hand, Mike Slamer, Andrew Freeman "    REM COMPOSER ""    INDEX 01 00:00:00  TRACK 02 AUDIO    TITLE "Falling In"    PERFORMER "Devil's Hand, Mike Slamer, Andrew Freeman "    REM COMPOSER ""    INDEX 01 04:55:56  TRACK 03 AUDIO    TITLE "One More Time"    PERFORMER "Devil's Hand, Mike Slamer, Andrew Freeman "    REM COMPOSER ""    INDEX 01 09:22:56  TRACK 04 AUDIO    TITLE "Another Way To Fly"    PERFORMER "Devil's Hand, Mike Slamer, Andrew Freeman "    REM COMPOSER ""    INDEX 01 13:31:19  TRACK 05 AUDIO    TITLE "Drive Away"    PERFORMER "Devil's Hand, Mike Slamer, Andrew Freeman "    REM COMPOSER ""    INDEX 01 17:31:28  TRACK 06 AUDIO    TITLE "Justified"    PERFORMER "Devil's Hand, Mike Slamer, Andrew Freeman "    REM COMPOSER ""    INDEX 01 21:43:28  TRACK 07 AUDIO    TITLE "Rise Above It All"    PERFORMER "Devil's Hand, Mike Slamer, Andrew Freeman "    REM COMPOSER ""    INDEX 01 24:46:37  TRACK 08 AUDIO    TITLE "Devil's Hand"    PERFORMER "Devil's Hand, Mike Slamer, Andrew Freeman "    REM COMPOSER ""    INDEX 01 29:31:00  TRACK 09 AUDIO    TITLE "Unified"    PERFORMER "Devil's Hand, Mike Slamer, Andrew Freeman "    REM COMPOSER ""    INDEX 01 33:42:66  TRACK 10 AUDIO    TITLE "Heartbeat Away"    PERFORMER "Devil's Hand, Mike Slamer, Andrew Freeman "    REM COMPOSER ""    INDEX 01 37:42:66  TRACK 11 AUDIO    TITLE "Push Comes To Shove"    PERFORMER "Devil's Hand, Mike Slamer, Andrew Freeman "    REM COMPOSER ""    INDEX 01 42:22:66

Лог проверки качества

-----------------------DON'T MODIFY THIS FILE-----------------------PERFORMER: auCDtect Task Manager, ver. 1.5.1RC4 build 1.5.1.5Copyright (c) 2008-2010 y-soft. All rights reservedhttp://y-soft.orgANALYZER: auCDtect: CD records authenticity detector, version 0.8.2Copyright (c) 2004 Oleg Berngardt. All rights reserved.Copyright (c) 2004 Alexander Djourik. All rights reserved.FILE: Devil's Hand, Mike Slamer, Andrew Freeman  - Devil's Hand.flac  Size: 360833142 Hash: 92C412FA85EF63838165FD86B4AA789B Accuracy: -m0  Conclusion: CDDA 100%  Signature: A6AC64258D307B025D596375C02D7D4850DDF4DD

Замер динамического диапазона (DR)

foobar2000 1.3.9 / Замер динамического диапазона (DR) 1.1.1Дата отчёта:  2019-02-03 11:55:28--------------------------------------------------------------------------------Анализ:   Devil's Hand, Mike Slamer, Andrew Freeman  / Devil's Hand--------------------------------------------------------------------------------DR         Пики         RMS           Продолжительность трека--------------------------------------------------------------------------------DR7        0.00 дБ    -7.49 дБ      4:56 01-We Come AliveDR7        0.00 дБ    -8.36 дБ      4:27 02-Falling InDR5        0.00 дБ    -8.14 дБ      4:09 03-One More TimeDR5        0.00 дБ    -6.06 дБ      4:00 04-Another Way To FlyDR7        0.00 дБ    -8.79 дБ      4:12 05-Drive AwayDR8        0.00 дБ   -10.53 дБ      3:03 06-JustifiedDR7        0.00 дБ    -8.14 дБ      4:45 07-Rise Above It AllDR5        0.00 дБ    -6.93 дБ      4:12 08-Devil's HandDR6        0.00 дБ    -9.15 дБ      4:00 09-UnifiedDR7        0.00 дБ    -8.03 дБ      4:40 10-Heartbeat AwayDR7        0.00 дБ    -7.83 дБ      4:20 11-Push Comes To Shove--------------------------------------------------------------------------------Количество треков: 11Реальные значения DR: DR6Частота:   44100 ГцКаналов:   2Разрядность:   16Битрейт:   1067 кбит/сКодек:   FLAC================================================================================
Доп. информация

Состав

Lead Vocals, Backing Vocals [Background Vocals] – Andrew Freeman
Guitar [Guitars], Bass, Keyboards – Mike Slamer
Drums – Chet Wynd
Backing Vocals [Background Vocals] – Casey Purvis, Jeff Valdez

Об исполнителе

DEVIL'S HAND is an excellent new project featuring the amazing talents of two outstanding musicians: famed producer/guitarist/songwriter Mike Slamer and the equally amazing singer Andrew Freeman of Last In Line.
Mike Slamer has been the guy behind some of the most amazing melodic hard rock releases of the past 20 years. The list includes, but is not limited to, Steelhouse Lane, Seventh Key, Slamer, and Terry Brock, and we can’t forget his work in the 80’s with Streets (featuring Kansas singer Steve Walsh) and the 70’s with City Boy. The quality of his songwriting and production work is unsurpassed in the business and the records he produced and was involved in stand the test of time! A true musician’s musician.
Andrew Freeman is one of the most gifted singers of the current hard rock scene. With his performance on the Last In Line debut album he turned heads not only with his vocal performance, but specifically because he put his own stamp on a band that was incorrectly thought to be “just another Dio tribute act”. His unbelievable set of pipes takes no prisoners on this album!
“Devil’s Hand” is going to be an highlight of the melodic hard rock release year. Yet another unbelievable record from Mr. Slamer and a testament to the abilities of one of the greatest rock singers around.https://www.frontiers.shop/new-releases/795/devil-s-hand-feat.-slamer/freeman-s/t-cd-jewelcase
https://www.amazon.com/Devils-Hand-Ft-Slamer-Freeman/dp/B07GC3KRVM

To download the content you need:
1. Download and install torrent client [for Windows] or for mobile system
2. Click on [Download]
Attention.
If the test YOU are NOT a ROBOT - does not work, then You are using an outdated browser.
Install the current browser and click on [Download]
Security: torrent client is allowed by Kaspersky.

[asmlocator.ru].t607840.torrent 
Torrent: Registered [ 2019-02-07 06:05 ] · 9716D4586D37461C55B3D96C443A11EAC2B43299

Download .torrent

Download

15 KB

Status: checked
Completed: 0 times
Size: 353 MB
terms.php
[Profile] [PM]
Display posts:    
Reply to topic

Current time is: 17-Jul 05:40

All times are UTC ± 0



You cannot post new topics in this forum
You cannot reply to topics in this forum
You cannot edit your posts in this forum
You cannot delete your posts in this forum
You cannot vote in polls in this forum
You cannot attach files in this forum
You can download files in this forum