По домам: Золотые детки (14 эпизодов) / Teen Cribs (Эми Старр / Amy Starr) [2010, документальный, развлечения, роскошь, недвижимость, DVB]

Ответить на тему
Статистика раздачи
Размер:  5,75 GB   |    Зарегистрирован:  9 месяцев 21 день   |    Скачан:  0 раз

Полного источника не было: Никогда

 
   
 
 
Автор Сообщение

star21 ®

Пол: Женский

Стаж: 4 года

Сообщений: 551946

Откуда: Екатеринбург

Создавать темы 25-Янв-2019 16:20

[Цитировать]

По домам: Золотые детки (14 эпизодов) / Teen Cribs Дата/Год выпуска: 2010
Страна: США
Жанр: документальный, развлечения, роскошь, недвижимость
Продолжительность: серии по ~ 20 минут
Перевод: Профессиональный (двухголосый закадровый)
Русские субтитры: нетРежиссер: Эми Старр / Amy StarrТелеканал: MTV
Описание: Родители этих детей вложили всю свою жизнь в то, чтобы их чада жили в настоящей сказке. Вы когда-нибудь мечтали о домашнем кинотеатре, баскетбольной площадке и бассейне с водопадами? Мы проведем вас по домам самых счастливых и золотых деток. Однако в итоге вы убедитесь, что главное здесь не роскошь и развлечения, а желание привить своим детям любовь к дому и семье, научить их заботиться друг о друге, доме и домашних животных, а также желание разделить свою радость с другимикачество: DVB
формат: MPG
Видео: MPEG2 Video 720x576 (16:9) 25fps
Аудио: MPEG Audio 48000Hz stereo 192kbps

MediaInfo

GeneralComplete name                  : F:\По домам. Золотые детки\04. По домам. Золотые детки.mpgFormat                         : MPEG-PSFile size                      : 436 MiBDuration                       : 20mn 16sOverall bit rate mode          : VariableOverall bit rate               : 3 007 KbpsVideoID                             : 224 (0xE0)Format                         : MPEG VideoFormat version                 : Version 2Format profile                 : Main@MainFormat settings, BVOP          : YesFormat settings, Matrix        : CustomFormat settings, GOP           : VariableFormat settings, picture struc : FrameDuration                       : 20mn 16sBit rate mode                  : VariableBit rate                       : 2 755 KbpsMaximum bit rate               : 5 000 KbpsWidth                          : 720 pixelsHeight                         : 576 pixelsDisplay aspect ratio           : 16:9Frame rate                     : 25.000 fpsStandard                       : PALColor space                    : YUVChroma subsampling             : 4:2:0Bit depth                      : 8 bitsScan type                      : InterlacedScan order                     : Top Field FirstCompression mode               : LossyBits/(Pixel*Frame)             : 0.266Time code of first frame       : 00:00:00:00Time code source               : Group of pictures headerStream size                    : 400 MiB (92%)AudioID                             : 192 (0xC0)Format                         : MPEG AudioFormat version                 : Version 1Format profile                 : Layer 2Duration                       : 20mn 16sBit rate mode                  : ConstantBit rate                       : 192 KbpsChannel(s)                     : 2 channelsSampling rate                  : 48.0 KHzCompression mode               : LossyStream size                    : 27.8 MiB (6%)
Мои раздачи: архитектура, искусство, недвижимость http://rutracker.org/forum/tracker.php?rid=8171303 Дорогие мои, о необходимости встать на раздачу, пожалуйста, пишите в личном сообщении, а не на странице.

Чтобы скачать этот контент, Вам необходимо:
1. Скачать и установить торрент-клиент [клик для Windows], (для мобильного найдите на Play Маркет).
2. Кликнуть по [Скачать]


Внимание.
Если проверка ВЫ НЕ РОБОТ - не работает, значит Вы используете устаревший браузер.
Установите актуальный браузер и повторно кликните по [Скачать]
Безопасность: торрент-клиент разрешён АВ Касперского.

[asmlocator.ru].t602529.torrent 
Торрент: Зарегистрирован [ 2019-01-25 16:20 ] · 2B8CBBF41999108AF9E9027909808BC185CA2624

Скачать .torrent

Скачать

30 KB

Статус: проверено
Скачан: 0 раз
Размер: 5,75 GB
terms.php
[Профиль] [ЛС]
Показать сообщения:    
Ответить на тему

Текущее время: 15-Ноя 19:17

Часовой пояс: UTC ± 0



Вы не можете начинать темы
Вы не можете отвечать на сообщения
Вы не можете редактировать свои сообщения
Вы не можете удалять свои сообщения
Вы не можете голосовать в опросах
Вы не можете прикреплять файлы к сообщениям
Вы можете скачивать файлы
Верим фактам, а не вранью Путина! Факт, что Правительство ведёт Россию к истреблению.
Так как численность населения падает, даже не смотря на приток эмигрантов!
Русская нация вымирает и вырождается, смешиваясь с эмигрантами!
Факт, что военных и граждан предприятий заставляют голосовать за партию Единая Россия и Путина
ПОД СТРАХОМ УВОЛЬНЕНИЯ!
Нам не нужно Правительство, блокирующее личную жизнь, интернет, нарушающее сохранность данных.
Все эти действия финансируются за счёт народа!