(Melodic Hard rock) [WEB] Spidergawd - Spidergawd IV - 2017, FLAC (tracks), lossless

Reply to topic
DL-List and Torrent activity
Size:  316 MB   |    Registered:  5 months 24 days   |    Completed:  0 times

Seeder not seen: 4 months 22 days

 
   
 
 
Author Message

star21 ®

Gender: Female

Longevity: 3 years 8 months

Posts: 552050

Location: Екатеринбург

Post 23-Jan-2019 21:40

[Quote]

Spidergawd / Spidergawd IV Жанр: Melodic Hard rock
Носитель: WEB
Год издания: 2017
Издатель (лейбл): Crispin Glover Records
Номер по каталогу: VODU8CGR072
Страна исполнителя (группы): Norway
Аудиокодек: FLAC (*.flac)
Тип рипа: tracks
Битрейт аудио: lossless
Продолжительность: 00:40:57
Источник (релизер): 7digital
Наличие сканов в содержимом раздачи:frontТреклист:01. Is This Love..?
02. I Am the Night
03. LouCille
04. Ballad of a Millionaire (Song for Elina)
05. What You Have Become
06. The Inevitable
07. Heaven Comes Tomorrow
08. Stranglehold

Dynamic Range Meter

foobar2000 1.3.3 (cdpos.biz) / Замер динамического диапазона (DR) 1.1.1Дата отчёта:  2018-01-06 14:04:40--------------------------------------------------------------------------------Анализ:   Spidergawd / IV--------------------------------------------------------------------------------DR         Пики         RMS           Продолжительность трека--------------------------------------------------------------------------------DR7       -0.13 дБ    -7.89 дБ      4:29 1-Is this Love...?DR5       -0.11 дБ    -6.47 дБ      4:38 2-I am the NightDR6       -0.10 дБ    -7.15 дБ      5:31 3-LoucilleDR6       -0.14 дБ    -7.69 дБ      4:43 4-Ballad of a Millionaire (Song for Elina)DR6       -0.15 дБ    -6.82 дБ      3:44 5-What you have BecomeDR7       -0.17 дБ    -8.79 дБ      8:18 6-The InevitableDR6       -0.06 дБ    -6.37 дБ      4:15 7-Heaven comes TomorrowDR6       -0.16 дБ    -7.30 дБ      5:26 8-Stranglehold--------------------------------------------------------------------------------Количество треков: 8Реальные значения DR: DR6Частота:   44100 ГцКаналов:   2Разрядность:   16Битрейт:   1071 кбит/сКодек:   FLAC================================================================================

Лог проверки качества

-----------------------DON'T MODIFY THIS FILE-----------------------PERFORMER: auCDtect Task Manager, ver. 1.5.1RC4 build 1.5.1.5Copyright (c) 2008-2010 y-soft. All rights reservedhttp://y-soft.orgANALYZER: auCDtect: CD records authenticity detector, version 0.8.2Copyright (c) 2004 Oleg Berngardt. All rights reserved.Copyright (c) 2004 Alexander Djourik. All rights reserved.FILE: 08. Spidergawd - Stranglehold.flac  Size: 43666376 Hash: EE3FDD6C7B9CFDFF16E9CAB047621CFC Accuracy: -m0  Conclusion: CDDA 100%  Signature: 51D002672AA30565B2F792245218A98CE8E6210EFILE: 07. Spidergawd - Heaven comes Tomorrow.flac  Size: 34954505 Hash: FA563CE06D4DCB7FF65FFBCC3ED38B4C Accuracy: -m0  Conclusion: CDDA 100%  Signature: 8FB4390795B05AF5ADCD757E50971B7B3CEBA54BFILE: 06. Spidergawd - The Inevitable.flac  Size: 61917472 Hash: 2D660A100627CEE84B7AE81B35895EDD Accuracy: -m0  Conclusion: CDDA 100%  Signature: D435D551E7CE63C0E5070933DC5F9CB62BD203C5FILE: 05. Spidergawd - What you have Become.flac  Size: 31143891 Hash: 276FF6C498C1CFE2750F01B8E0520DC8 Accuracy: -m0  Conclusion: CDDA 99%  Signature: 7D9D8D7BF3D112ABF092EC05675F7177EE6CA6B0FILE: 04. Spidergawd - Ballad of a Millionaire (Song for Elina).flac  Size: 37964914 Hash: E8441E4F78FA39672F683B72BB9DEE3D Accuracy: -m0  Conclusion: CDDA 100%  Signature: B86D578913E2A1652E6632ABE78C52AC21674C2BFILE: 03. Spidergawd - Loucille.flac  Size: 45979704 Hash: 23A79B8FEC7F452F6DBD7CD72B8DABBC Accuracy: -m0  Conclusion: CDDA 99%  Signature: 372E048A04B636E8C3CAE59BDB0E7B71642E53CFFILE: 02. Spidergawd - I am the Night.flac  Size: 38111663 Hash: 5D26984BE872AF0437FB282DA5A3E609 Accuracy: -m0  Conclusion: CDDA 100%  Signature: AA8EBDA045AFA87616463E4A6C181C6789F91A96FILE: 01. Spidergawd - Is this Love....flac  Size: 36962630 Hash: 1950051BF9705F76789113C137435928 Accuracy: -m0  Conclusion: CDDA 100%  Signature: 352B093B081B7C5751CE70467016FD123DD98697

To download the content you need:
1. Download and install torrent client [for Windows] or for mobile system
2. Click on [Download]
Attention.
If the test YOU are NOT a ROBOT - does not work, then You are using an outdated browser.
Install the current browser and click on [Download]
Security: torrent client is allowed by Kaspersky.

[asmlocator.ru].t600729.torrent 
Torrent: Registered [ 2019-01-23 21:40 ] · 818E2CC25B8BF33DE7A0A50677378243A47D1294

Download .torrent

Download

14 KB

Status: checked
Completed: 0 times
Size: 316 MB
terms.php
[Profile] [PM]
Display posts:    
Reply to topic

Current time is: 17-Jul 05:41

All times are UTC ± 0



You cannot post new topics in this forum
You cannot reply to topics in this forum
You cannot edit your posts in this forum
You cannot delete your posts in this forum
You cannot vote in polls in this forum
You cannot attach files in this forum
You can download files in this forum