(Melodic Hard rock) [CD] Spidergawd - Spidergawd II - 2015, FLAC (tracks+.cue), lossless

Reply to topic
DL-List and Torrent activity
Size:  287 MB   |    Registered:  5 months 24 days   |    Completed:  0 times

Seeder not seen: 4 months 22 days

 
   
 
 
Author Message

star21 ®

Gender: Female

Longevity: 3 years 8 months

Posts: 552050

Location: Екатеринбург

Post 23-Jan-2019 21:40

[Quote]

Spidergawd / Spidergawd II Жанр: Melodic Hard rock
Носитель: CD
Страна-производитель диска (релиза): Norway
Год издания: 2015
Издатель (лейбл): Crispin Glover Records
Номер по каталогу: VODU5CGR045
Страна исполнителя (группы): Norway
Аудиокодек: FLAC (*.flac)
Тип рипа: tracks+.cue
Битрейт аудио: lossless
Продолжительность: 00:42:08
Источник (релизер): RockHard Lossless
Наличие сканов в содержимом раздачи: front
Треклист:
1. ...Is All She Says 05:22
2. Tourniquet 03:22
3. Crossroads 05:29
4. Fixing To Die Blues 04:14
5. Caerulean Caribou 04:36
6. Get Physical 03:34
7. Made From Sin 05:24
8. Our Time (Slight Return) 05:22
9. Sanctuary 04:40

Лог создания рипа

Exact Audio Copy V1.0 beta 4 from 7. December 2014EAC extraction logfile from 26. January 2015, 0:05Spidergawd / Spidergawd IIUsed drive  : SlimtypeDVD A  DA8A5SH-L   Adapter: 1  ID: 0Read mode               : SecureUtilize accurate stream : YesDefeat audio cache      : YesMake use of C2 pointers : NoRead offset correction                      : 6Overread into Lead-In and Lead-Out          : NoFill up missing offset samples with silence : YesDelete leading and trailing silent blocks   : NoNull samples used in CRC calculations       : YesUsed interface                              : Native Win32 interface for Win NT & 2000Gap handling                                : Appended to previous trackUsed output format              : User Defined EncoderSelected bitrate                : 768 kBit/sQuality                         : HighAdd ID3 tag                     : NoCommand line compressor         : C:\Program Files (x86)\Exact Audio Copy\FLAC\FLAC.EXEAdditional command line options : -6 -V -T "ARTIST=%artist%" -T "TITLE=%title%" -T "ALBUM=%albumtitle%" -T "DATE=%year%" -T "TRACKNUMBER=%tracknr%" -T "GENRE=%genre%" -T "COMMENT=%comment%" -T "BAND=%albuminterpret%" -T "ALBUMARTIST=%albuminterpret%" -T "COMPOSER=%composer%" %haslyrics%--tag-from-file=LYRICS="%lyricsfile%"%haslyrics% -T "DISCNUMBER=%cdnumber%" -T "TOTALDISCS=%totalcds%" -T "TOTALTRACKS=%numtracks%" %hascover%--picture="%coverfile%"%hascover% %source% -o %dest%TOC of the extracted CD     Track |   Start  |  Length  | Start sector | End sector    ---------------------------------------------------------        1  |  0:00.00 |  5:22.52 |         0    |    24201        2  |  5:22.52 |  3:22.32 |     24202    |    39383        3  |  8:45.09 |  5:29.17 |     39384    |    64075        4  | 14:14.26 |  4:14.62 |     64076    |    83187        5  | 18:29.13 |  4:36.66 |     83188    |   103953        6  | 23:06.04 |  3:34.60 |    103954    |   120063        7  | 26:40.64 |  5:24.73 |    120064    |   144436        8  | 32:05.62 |  5:22.10 |    144437    |   168596        9  | 37:27.72 |  4:40.49 |    168597    |   189645Track  1     Filename H:\rip\Spidergawd\Spidergawd -Spidergawd II[2015]\Spidergawd - Spidergawd II - 01. Is All She Says.wav     Pre-gap length  0:00:02.00     Peak level 98.6 %     Extraction speed 1.0 X     Track quality 99.9 %     Test CRC 4CCF0D09     Copy CRC 4CCF0D09     Track not present in AccurateRip database     Copy OKTrack  2     Filename H:\rip\Spidergawd\Spidergawd -Spidergawd II[2015]\Spidergawd - Spidergawd II - 02. Tourniquet.wav     Peak level 99.5 %     Extraction speed 1.2 X     Track quality 100.0 %     Test CRC 04BFC5C6     Copy CRC 04BFC5C6     Track not present in AccurateRip database     Copy OKTrack  3     Filename H:\rip\Spidergawd\Spidergawd -Spidergawd II[2015]\Spidergawd - Spidergawd II - 03. Crossroads.wav     Peak level 96.7 %     Extraction speed 1.4 X     Track quality 100.0 %     Test CRC 9F04CCB1     Copy CRC 9F04CCB1     Track not present in AccurateRip database     Copy OKTrack  4     Filename H:\rip\Spidergawd\Spidergawd -Spidergawd II[2015]\Spidergawd - Spidergawd II - 04. Fixing To Die Blues.wav     Peak level 97.3 %     Extraction speed 1.5 X     Track quality 100.0 %     Test CRC 1BBBA70C     Copy CRC 1BBBA70C     Track not present in AccurateRip database     Copy OKTrack  5     Filename H:\rip\Spidergawd\Spidergawd -Spidergawd II[2015]\Spidergawd - Spidergawd II - 05. Caerulean Caribou.wav     Peak level 96.7 %     Extraction speed 1.4 X     Track quality 99.9 %     Test CRC A5F373DA     Copy CRC A5F373DA     Track not present in AccurateRip database     Copy OKTrack  6     Filename H:\rip\Spidergawd\Spidergawd -Spidergawd II[2015]\Spidergawd - Spidergawd II - 06. Get Physical.wav     Peak level 96.5 %     Extraction speed 1.4 X     Track quality 99.9 %     Test CRC 2AD59B1B     Copy CRC 2AD59B1B     Track not present in AccurateRip database     Copy OKTrack  7     Filename H:\rip\Spidergawd\Spidergawd -Spidergawd II[2015]\Spidergawd - Spidergawd II - 07. Made From Sin.wav     Peak level 99.1 %     Extraction speed 1.8 X     Track quality 100.0 %     Test CRC AEA3527C     Copy CRC AEA3527C     Track not present in AccurateRip database     Copy OKTrack  8     Filename H:\rip\Spidergawd\Spidergawd -Spidergawd II[2015]\Spidergawd - Spidergawd II - 08. Our Time (Slight Return).wav     Peak level 99.7 %     Extraction speed 1.9 X     Track quality 100.0 %     Test CRC 29F7932D     Copy CRC 29F7932D     Track not present in AccurateRip database     Copy OKTrack  9     Filename H:\rip\Spidergawd\Spidergawd -Spidergawd II[2015]\Spidergawd - Spidergawd II - 09. Sanctuary.wav     Peak level 99.8 %     Extraction speed 2.0 X     Track quality 100.0 %     Test CRC 9F5724ED     Copy CRC 9F5724ED     Track not present in AccurateRip database     Copy OKNone of the tracks are present in the AccurateRip databaseNo errors occurredEnd of status report---- CUETools DB Plugin V2.1.4[CTDB TOCID: dJCDzu_6Pgb5EAlG8VSUKn6Q.Cc-] foundSubmit result: already submittedTrack | CTDB Status  1   | (2/2) Accurately ripped  2   | (2/2) Accurately ripped  3   | (2/2) Accurately ripped  4   | (2/2) Accurately ripped  5   | (2/2) Accurately ripped  6   | (2/2) Accurately ripped  7   | (2/2) Accurately ripped  8   | (2/2) Accurately ripped  9   | (2/2) Accurately ripped==== Log checksum 376D8A12B4303A6203A7809A17ED66A9CA0E80E0DF785529BFAB1BE59003A312 ====

Содержание индексной карты (.CUE)

REM GENRE RockREM DATE 2015REM DISCID 7109E009REM COMMENT "ExactAudioCopy v1.0b4"PERFORMER "Spidergawd"TITLE "Spidergawd II"FILE "Spidergawd - Spidergawd II - 01. Is All She Says.wav" WAVE  TRACK 01 AUDIO    TITLE "Is All She Says"    PERFORMER "Spidergawd"    ISRC NOCTE1501010    FLAGS DCP    INDEX 01 00:00:00FILE "Spidergawd - Spidergawd II - 02. Tourniquet.wav" WAVE  TRACK 02 AUDIO    TITLE "Tourniquet"    PERFORMER "Spidergawd"    ISRC NOCTE1501020    FLAGS DCP    INDEX 01 00:00:00FILE "Spidergawd - Spidergawd II - 03. Crossroads.wav" WAVE  TRACK 03 AUDIO    TITLE "Crossroads"    PERFORMER "Spidergawd"    ISRC NOCTE1501030    FLAGS DCP    INDEX 01 00:00:00FILE "Spidergawd - Spidergawd II - 04. Fixing To Die Blues.wav" WAVE  TRACK 04 AUDIO    TITLE "Fixing To Die Blues"    PERFORMER "Spidergawd"    ISRC NOCTE1501040    FLAGS DCP    INDEX 01 00:00:00FILE "Spidergawd - Spidergawd II - 05. Caerulean Caribou.wav" WAVE  TRACK 05 AUDIO    TITLE "Caerulean Caribou"    PERFORMER "Spidergawd"    ISRC NOCTE1501050    FLAGS DCP    INDEX 01 00:00:00FILE "Spidergawd - Spidergawd II - 06. Get Physical.wav" WAVE  TRACK 06 AUDIO    TITLE "Get Physical"    PERFORMER "Spidergawd"    ISRC NOCTE1501060    FLAGS DCP    INDEX 01 00:00:00FILE "Spidergawd - Spidergawd II - 07. Made From Sin.wav" WAVE  TRACK 07 AUDIO    TITLE "Made From Sin"    PERFORMER "Spidergawd"    ISRC NOCTE1501070    FLAGS DCP    INDEX 01 00:00:00FILE "Spidergawd - Spidergawd II - 08. Our Time (Slight Return).wav" WAVE  TRACK 08 AUDIO    TITLE "Our Time (Slight Return)"    PERFORMER "Spidergawd"    ISRC NOCTE1501080    FLAGS DCP    INDEX 01 00:00:00FILE "Spidergawd - Spidergawd II - 09. Sanctuary.wav" WAVE  TRACK 09 AUDIO    TITLE "Sanctuary"    PERFORMER "Spidergawd"    ISRC NOCTE1501090    FLAGS DCP    INDEX 01 00:00:00

Лог проверки качества

-----------------------DON'T MODIFY THIS FILE-----------------------PERFORMER: auCDtect Task Manager, ver. 1.5.1RC4 build 1.5.1.5Copyright (c) 2008-2010 y-soft. All rights reservedhttp://y-soft.orgANALYZER: auCDtect: CD records authenticity detector, version 0.8.2Copyright (c) 2004 Oleg Berngardt. All rights reserved.Copyright (c) 2004 Alexander Djourik. All rights reserved.FILE: Spidergawd - Spidergawd II - 09. Sanctuary.flac  Size: 34469978 Hash: 0BC9C9B2A161F98005EC8C2E6FED7B55 Accuracy: -m0  Conclusion: MPEG 91%  Signature: B5E4045ABE5CE0E86A8DFCFC563B80902A33FF8DFILE: Spidergawd - Spidergawd II - 08. Our Time (Slight Return).flac  Size: 38842754 Hash: C413FC6A2F5B60440B59FD4B6E1AC1A9 Accuracy: -m0  Conclusion: MPEG 95%  Signature: 34A9752B7211DC6EB10943EB2945829ACC2A6F3FFILE: Spidergawd - Spidergawd II - 07. Made From Sin.flac  Size: 42255413 Hash: FA0A56E7F2DD8BD992EA079BFE9A94E9 Accuracy: -m0  Conclusion: MPEG 100%  Signature: 9E2C76EF903980262579511CAC36016ED0A72863FILE: Spidergawd - Spidergawd II - 06. Get Physical.flac  Size: 25919045 Hash: CFCF233E6B7FB2D4EA6DBC490BC28D61 Accuracy: -m0  Conclusion: CDDA 62%  Signature: B62B40226FD0DF666A59C0FEBB2F14FCFD3AC717FILE: Spidergawd - Spidergawd II - 05. Caerulean Caribou.flac  Size: 30070995 Hash: A5BDA22E63CFD9F45A60C7BC4B1588EF Accuracy: -m0  Conclusion: MPEG 80%  Signature: B7E679C18B605E13457FBDBE15369FDE628260BAFILE: Spidergawd - Spidergawd II - 04. Fixing To Die Blues.flac  Size: 31432760 Hash: C36641C47B7D56ABA2ED63ADAB1FF728 Accuracy: -m0  Conclusion: MPEG 91%  Signature: 8E9EBDB9DEDDE7D0FD52B2E70579FFC709F96B47FILE: Spidergawd - Spidergawd II - 03. Crossroads.flac  Size: 38899554 Hash: 1FBDB8B5C6B6EF8FB79565B8F69F9BF9 Accuracy: -m0  Conclusion: MPEG 92%  Signature: 82511D043AA0979451383D5F48CD14DBC4880D70FILE: Spidergawd - Spidergawd II - 02. Tourniquet.flac  Size: 26567707 Hash: 938FC098D484E5EEBFB0CF16021A70CE Accuracy: -m0  Conclusion: MPEG 100%  Signature: D888F300C9FBF3A2C37C770A44AB63AD549FDBAAFILE: Spidergawd - Spidergawd II - 01. Is All She Says.flac  Size: 32208312 Hash: 096286051B388A47607E4D9B6EC7FEAD Accuracy: -m0  Conclusion: MPEG 90%  Signature: 45FB364557BECD692359039285FDB9FFB7917646

Скриншот спектра частот

Dynamic Range Meter

foobar2000 1.3.3 (cdpos.biz) / Замер динамического диапазона (DR) 1.1.1Дата отчёта:  2017-03-20 09:44:22--------------------------------------------------------------------------------Анализ:   Spidergawd / Spidergawd II--------------------------------------------------------------------------------DR         Пики         RMS           Продолжительность трека--------------------------------------------------------------------------------DR7       -0.12 дБ    -9.73 дБ      5:23 01-Is All She SaysDR8       -0.04 дБ    -8.93 дБ      3:22 02-TourniquetDR7       -0.29 дБ    -8.37 дБ      5:29 03-CrossroadsDR7       -0.23 дБ    -8.79 дБ      4:15 04-Fixing To Die BluesDR7       -0.28 дБ    -9.06 дБ      4:37 05-Caerulean CaribouDR8       -0.30 дБ    -9.67 дБ      3:35 06-Get PhysicalDR6       -0.07 дБ    -8.22 дБ      5:25 07-Made From SinDR7       -0.02 дБ    -8.52 дБ      5:22 08-Our Time (Slight Return)DR8       -0.01 дБ    -8.55 дБ      4:41 09-Sanctuary--------------------------------------------------------------------------------Количество треков: 9Реальные значения DR: DR7Частота:   44100 ГцКаналов:   2Разрядность:   16Битрейт:   982 кбит/сКодек:   FLAC================================================================================

To download the content you need:
1. Download and install torrent client [for Windows] or for mobile system
2. Click on [Download]
Attention.
If the test YOU are NOT a ROBOT - does not work, then You are using an outdated browser.
Install the current browser and click on [Download]
Security: torrent client is allowed by Kaspersky.

[asmlocator.ru].t600727.torrent 
Torrent: Registered [ 2019-01-23 21:40 ] · 0DCA3D65A77FCFBACCD920C032F504884EDAAFEB

Download .torrent

Download

13 KB

Status: checked
Completed: 0 times
Size: 287 MB
terms.php
[Profile] [PM]
Display posts:    
Reply to topic

Current time is: 17-Jul 05:42

All times are UTC ± 0



You cannot post new topics in this forum
You cannot reply to topics in this forum
You cannot edit your posts in this forum
You cannot delete your posts in this forum
You cannot vote in polls in this forum
You cannot attach files in this forum
You can download files in this forum