[DTSCD][UP] Nana - Father - 1998 (Pop, Rap, Hip-Hop, Soul)

Ответить на тему
Статистика раздачи
Размер:  502 MB   |    Зарегистрирован:  8 месяцев 30 дней   |    Скачан:  1 раз

Полного источника не было: 1 день 17 часов

 
   
 
 
Автор Сообщение

star21 ®

Пол: Женский

Стаж: 3 года 11 месяцев

Сообщений: 551988

Откуда: Екатеринбург

Создавать темы 21-Янв-2019 15:20

[Цитировать]

NANA - Father DTS UPMix Формат записи/Источник записи: [DTSCD][UP]
Наличие водяных знаков: Нет
Год издания/переиздания диска: 1998
Жанр: Pop, Rap, Hip-Hop, Soul
Производитель диска:Motor Music GmbH
Продолжительность: 50мин
Наличие сканов в содержимом раздачи: Да, сканыТрэклист:01-NANA-Father
02-NANA-Do You Really Think You Know Me
03-NANA-Remember The Time
04-NANA-Nigga4Life
05-NANA-Dreams
06-NANA-Judgement Day
07-NANA-Too Much Heaven
08-NANA-You
09-NANA-Pocket Full Of Me
10-NANA-That's The Way Life Goes On
11-NANA-GodКонтейнер: WAV(*.wav)
Тип рипа: tracksРазрядность: 16/44,1
Формат: DTS
Количество каналов: 5.1
Битрейт аудио: 1411 kbps

DR-лог

----------------------------------------------------------------------------------------------foobar2000 1.1.9 / Dynamic Range Meter 1.1.1log date: 2019-01-20 21:02:05--------------------------------------------------------------------------------Analyzed: ? / ?--------------------------------------------------------------------------------DR         Peak         RMS     Duration Track--------------------------------------------------------------------------------DR13      -1.55 dB   -18.58 dB      5:01 ?-01_NANA - Father DTSDR13      -1.86 dB   -18.58 dB      4:19 ?-02_NANA - Do You Really Think You Know Me DTSDR12      -1.82 dB   -18.58 dB      4:16 ?-03_NANA - Remember The Time DTSDR13      -2.77 dB   -18.55 dB      3:33 ?-04_NANA - Nigga 4 Life DTSDR13      -2.23 dB   -18.56 dB      4:26 ?-05_NANA - Dreams DTSDR13      -1.87 dB   -18.55 dB      5:33 ?-06_NANA - Judgement Day DTSDR13      -1.43 dB   -18.61 dB      3:57 ?-07_NANA - Too Much Heaven DTSDR13      -1.60 dB   -18.57 dB      4:22 ?-08_NANA - You DTSDR13      -1.49 dB   -18.54 dB      5:06 ?-09_NANA - Pocket Full Of Me DTSDR13      -1.29 dB   -18.56 dB      4:53 ?-10_NANA - That's The Way Life Goes On DTSDR13      -1.09 dB   -18.57 dB      4:16 ?-11_NANA - God DTS--------------------------------------------------------------------------------Number of tracks:  11Official DR value: DR13Samplerate:        44100 HzChannels:          6Bits per sample:   16Bitrate:           1411 kbpsCodec:             DTS================================================================================
Источник (релизер): Оригинальный CD
Доп. информация: DJ S.A.W. DTS Upmix
Метод получения апмикса:
ручное выделение фазо-частотных фрагментов фонограммы с помощью функции CCE Adobe Audition
мультиканальный мастеринг – Аdobe Audition (встроенными эффектами и плагинами Waves, iZotope,
Starplugs и т.п.)

Чтобы скачать этот контент, Вам необходимо:
1. Скачать и установить торрент-клиент [клик для Windows], (для мобильного найдите на Play Маркет).
2. Кликнуть по [Скачать]


Внимание.
Если проверка ВЫ НЕ РОБОТ - не работает, значит Вы используете устаревший браузер.
Установите актуальный браузер и повторно кликните по [Скачать]
Безопасность: торрент-клиент разрешён АВ Касперского.

[asmlocator.ru].t598584.torrent 
Торрент: Зарегистрирован [ 2019-01-21 15:20 ] · CDAC5586A553FAB1DE2F735DE7CB8542E1A1C5C8

Скачать .torrent

Скачать

21 KB

Статус: проверено
Скачан: 1 раз
Размер: 502 MB
terms.php
[Профиль] [ЛС]
Показать сообщения:    
Ответить на тему

Текущее время: 21-Окт 14:12

Часовой пояс: UTC ± 0



Вы не можете начинать темы
Вы не можете отвечать на сообщения
Вы не можете редактировать свои сообщения
Вы не можете удалять свои сообщения
Вы не можете голосовать в опросах
Вы не можете прикреплять файлы к сообщениям
Вы можете скачивать файлы
Верим фактам, а не вранью Путина! Факт, что Правительство ведёт Россию к истреблению.
Так как численность населения падает, даже не смотря на приток эмигрантов!
Русская нация вымирает и вырождается, смешиваясь с эмигрантами!
Факт, что военных и граждан предприятий заставляют голосовать за партию Единая Россия и Путина
ПОД СТРАХОМ УВОЛЬНЕНИЯ!
Нам не нужно Правительство, блокирующее личную жизнь, интернет, нарушающее сохранность данных.
Все эти действия финансируются за счёт народа!