(Classical, Vocal, Vocal Jazz) Katie & Maggie Noonan - Two of a Kind - 2004, FLAC (tracks+.cue) lossless

Ответить на тему
Статистика раздачи
Размер:  325 MB   |    Зарегистрирован:  10 месяцев 2 дня   |    Скачан:  0 раз

Полного источника не было: Никогда

 
   
 
 
Автор Сообщение

star21 ®

Пол: Женский

Стаж: 3 года 11 месяцев

Сообщений: 551988

Откуда: Екатеринбург

Создавать темы 11-Дек-2018 23:00

[Цитировать]

Katie & Maggie Noonan - Two of a Kind Жанр: Classical, Vocal, Vocal Jazz
Страна-производитель диска: Австралия
Год издания диска: 2004
Издатель (лейбл): ABC Classics
Номер по каталогу: 476 161-8
Аудиокодек: FLAC
Тип рипа: tracks+.cue
Битрейт аудио: lossless
Продолжительность: 1:02:35
Источник: скачано с redacted
Наличие сканов в содержимом раздачи: нетТреклист:
01. Too Marvellous for Words (Whiting-Mercer) - 2:54
02. Summertime from Porgy and Bess (Gershwin-Gershwin) - 5:55
03. Un bel di (One Fine Day) from Madama Butterfly (Puccini) - 4:42
04. Cio-Cio-San Dreaming - 1:47
05. Poor Butterfly (Hubbell-Golden) - 4:54
06. Ebben! Ne andro lontana from La Wally (Catalani) - 4:05
07. Flower Duet from Lakme (Delibes) - 5:22
08. Lush Life (Strayhorn) - 8:23
09. Letter Duet from The Marriage of Figaro (Mozart) - 2:57
10. Song to the Moon from Rusalka (Dvorak) - 6:38
11. Autumn Leaves (Kosma) - 5:18
12. Pleurez mes yeux (Weep My Eyes) from Le Cid (Massenet) - 6:29
13. I Have a Love from West Side Story (Bernstein) - 3:11Исполнители:
Katie Noonan - vocals
Maggie Noonan - soprano
Red Fish Blue Jazz Trio:
Sam Keevers - piano
Simon Barker - drums
Brett Hirst - double bass
The Queensland Orchestra
Guy Noble - conductorRecorded at Studio 420, ABC, Ferry Road, Brisbane on April 22-24, 2003 and February 9-10, 2004.

Лог создания рипа

Exact Audio Copy V1.0 beta 3 from 29. August 2011EAC extraction logfile from 22. August 2014, 22:36Katie and Maggie Noonan / Two of a KindUsed drive  : Optiarc DVD RW AD-7240S   Adapter: 2  ID: 0Read mode               : SecureUtilize accurate stream : YesDefeat audio cache      : YesMake use of C2 pointers : NoRead offset correction                      : 48Overread into Lead-In and Lead-Out          : NoFill up missing offset samples with silence : YesDelete leading and trailing silent blocks   : NoNull samples used in CRC calculations       : YesUsed interface                              : Native Win32 interface for Win NT & 2000Gap handling                                : Appended to previous trackUsed output format              : User Defined EncoderSelected bitrate                : 1024 kBit/sQuality                         : HighAdd ID3 tag                     : NoCommand line compressor         : C:\Program Files\Exact Audio Copy\FLAC\FLAC.EXEAdditional command line options : -8 -V -T "ARTIST=%artist%" -T "TITLE=%title%" -T "ALBUM=%albumtitle%" -T "DATE=%year%" -T "TRACKNUMBER=%tracknr%" -T "GENRE=%genre%" -T "PERFORMER=%albuminterpret%" -T "COMPOSER=%composer%" %haslyrics%--tag-from-file=LYRICS="%lyricsfile%"%haslyrics% -T "ALBUMARTIST=%albumartist%" -T "DISCNUMBER=%cdnumber%" -T "TOTALDISCS=%totalcds%" -T "TOTALTRACKS=%numtracks%" -T "COMMENT=%comment%" %source% -o %dest%TOC of the extracted CD     Track |   Start  |  Length  | Start sector | End sector    ---------------------------------------------------------        1  |  0:00.00 |  2:53.64 |         0    |    13038        2  |  2:53.64 |  5:55.16 |     13039    |    39679        3  |  8:49.05 |  4:42.10 |     39680    |    60839        4  | 13:31.15 |  1:47.32 |     60840    |    68896        5  | 15:18.47 |  4:53.53 |     68897    |    90924        6  | 20:12.25 |  4:05.15 |     90925    |   109314        7  | 24:17.40 |  5:21.62 |    109315    |   133451        8  | 29:39.27 |  8:22.66 |    133452    |   171167        9  | 38:02.18 |  2:57.01 |    171168    |   184443       10  | 40:59.19 |  6:38.17 |    184444    |   214310       11  | 47:37.36 |  5:17.65 |    214311    |   238150       12  | 52:55.26 |  6:28.41 |    238151    |   267291       13  | 59:23.67 |  3:11.14 |    267292    |   281630Track  1     Filename C:\01 - Too Marvellous for Words.wav     Pre-gap length  0:00:02.00     Peak level 98.8 %     Extraction speed 2.3 X     Track quality 100.0 %     Test CRC C29B08AE     Copy CRC C29B08AE     Cannot be verified as accurate (confidence 2)  [8836008C], AccurateRip returned [D6AB2204]  (AR v2)     Copy OKTrack  2     Filename C:\02 - Summertime.wav     Pre-gap length  0:00:04.84     Peak level 100.0 %     Extraction speed 2.6 X     Track quality 99.9 %     Test CRC B7FBAE00     Copy CRC B7FBAE00     Cannot be verified as accurate (confidence 2)  [2B354C12], AccurateRip returned [6C676EC2]  (AR v2)     Copy OKTrack  3     Filename C:\03 - Un bel dì.wav     Pre-gap length  0:00:05.04     Peak level 100.0 %     Extraction speed 3.0 X     Track quality 100.0 %     Test CRC 59D5BB41     Copy CRC 59D5BB41     Cannot be verified as accurate (confidence 2)  [6EE3A96A], AccurateRip returned [12B995A4]  (AR v2)     Copy OKTrack  4     Filename C:\04 - Cio-Cio-San Dreaming.wav     Pre-gap length  0:00:02.70     Peak level 56.3 %     Extraction speed 2.7 X     Track quality 100.0 %     Test CRC C6046CE2     Copy CRC C6046CE2     Cannot be verified as accurate (confidence 2)  [12162476], AccurateRip returned [327262F8]  (AR v2)     Copy OKTrack  5     Filename C:\05 - Poor Butterfly.wav     Peak level 98.8 %     Extraction speed 3.4 X     Track quality 100.0 %     Test CRC 4F311A68     Copy CRC 4F311A68     Cannot be verified as accurate (confidence 2)  [43722203], AccurateRip returned [EE169FBE]  (AR v2)     Copy OKTrack  6     Filename C:\06 - Ebben!Ne andrò lontana.wav     Pre-gap length  0:00:05.60     Peak level 98.8 %     Extraction speed 3.6 X     Track quality 100.0 %     Test CRC 6875C99C     Copy CRC 6875C99C     Cannot be verified as accurate (confidence 2)  [E9B13495], AccurateRip returned [74D3EF96]  (AR v2)     Copy OKTrack  7     Filename C:\07 - Flower Duet.wav     Pre-gap length  0:00:04.90     Peak level 99.7 %     Extraction speed 3.9 X     Track quality 100.0 %     Test CRC 66CD39AF     Copy CRC 66CD39AF     Cannot be verified as accurate (confidence 2)  [04701585], AccurateRip returned [85D1CBEA]  (AR v2)     Copy OKTrack  8     Filename C:\08 - Lush Life.wav     Pre-gap length  0:00:04.66     Peak level 99.5 %     Extraction speed 4.3 X     Track quality 100.0 %     Test CRC FD4E563D     Copy CRC FD4E563D     Cannot be verified as accurate (confidence 2)  [FF38AC13], AccurateRip returned [EB7C1E08]  (AR v2)     Copy OKTrack  9     Filename C:\09 - Letter Duet.wav     Pre-gap length  0:00:04.58     Peak level 98.8 %     Extraction speed 4.1 X     Track quality 100.0 %     Test CRC B087E252     Copy CRC B087E252     Cannot be verified as accurate (confidence 2)  [5373A3D6], AccurateRip returned [2C385BB8]  (AR v2)     Copy OKTrack 10     Filename C:\10 - Song to the Moon.wav     Pre-gap length  0:00:04.86     Peak level 98.8 %     Extraction speed 4.7 X     Track quality 100.0 %     Test CRC 7DD6E6A4     Copy CRC 7DD6E6A4     Cannot be verified as accurate (confidence 2)  [0AFDCA48], AccurateRip returned [07742ADC]  (AR v2)     Copy OKTrack 11     Filename C:\11 - Autumn Leaves.wav     Pre-gap length  0:00:06.34     Peak level 98.8 %     Extraction speed 4.8 X     Track quality 100.0 %     Test CRC 15D5EDC4     Copy CRC 15D5EDC4     Cannot be verified as accurate (confidence 2)  [33B98535], AccurateRip returned [09EE2976]  (AR v2)     Copy OKTrack 12     Filename C:\12 - Pleurez mes yeux (Weep my eyes).wav     Pre-gap length  0:00:04.97     Peak level 98.8 %     Extraction speed 5.1 X     Track quality 100.0 %     Test CRC 30B501D7     Copy CRC 30B501D7     Cannot be verified as accurate (confidence 2)  [B87AF200], AccurateRip returned [70B907D6]  (AR v2)     Copy OKTrack 13     Filename C:\13 - I Have a Love.wav     Pre-gap length  0:00:02.68     Peak level 98.8 %     Extraction speed 4.8 X     Track quality 100.0 %     Test CRC C7378445     Copy CRC C7378445     Cannot be verified as accurate (confidence 2)  [313BAD2B], AccurateRip returned [2147AB53]  (AR v2)     Copy OKNo tracks could be verified as accurateYou may have a different pressing from the one(s) in the databaseNo errors occurredEnd of status report---- CUETools DB Plugin V2.1.3[CTDB TOCID: XXmejqUo_Q51AZGNhSfmuoh7Gjc-] disk not present in database, Submit result: XXmejqUo_Q51AZGNhSfmuoh7Gjc- has been uploaded==== Log checksum E1F3E5367A950CC131DC5B6B32474119A51B1750744A7E3EB225AAD1B92C6516 ====

Содержание индексной карты (.CUE)

REM GENRE ClassicalREM DATE 2004REM DISCID B50EAB0DREM COMMENT "ExactAudioCopy v1.0b3"PERFORMER "Katie & Maggie Noonan"TITLE "Two of a Kind"FILE "01 - Too Marvellous for Words.wav" WAVE  TRACK 01 AUDIO    TITLE "Too Marvellous for Words"    PERFORMER "Katie & Maggie Noonan"    INDEX 01 00:00:00  TRACK 02 AUDIO    TITLE "Summertime from Porgy and Bess"    PERFORMER "Katie & Maggie Noonan"    INDEX 00 02:49:01FILE "02 - Summertime from Porgy and Bess.wav" WAVE    INDEX 01 00:00:00  TRACK 03 AUDIO    TITLE "Un bel di (One Fine Day) from Madama Butterfly"    PERFORMER "Katie & Maggie Noonan"    INDEX 00 05:50:13FILE "03 - Un bel di (One Fine Day) from Madama Butterfly.wav" WAVE    INDEX 01 00:00:00  TRACK 04 AUDIO    TITLE "Cio-Cio-San Dreaming"    PERFORMER "Katie & Maggie Noonan"    INDEX 00 04:39:32FILE "04 - Cio-Cio-San Dreaming.wav" WAVE    INDEX 01 00:00:00FILE "05 - Poor Butterfly.wav" WAVE  TRACK 05 AUDIO    TITLE "Poor Butterfly"    PERFORMER "Katie & Maggie Noonan"    INDEX 01 00:00:00  TRACK 06 AUDIO    TITLE "Ebben! Ne andro lontana from La Wally"    PERFORMER "Katie & Maggie Noonan"    INDEX 00 04:48:08FILE "06 - Ebben! Ne andro lontana from La Wally.wav" WAVE    INDEX 01 00:00:00  TRACK 07 AUDIO    TITLE "Flower Duet from Lakme"    PERFORMER "Katie & Maggie Noonan"    INDEX 00 04:00:22FILE "07 - Flower Duet from Lakme.wav" WAVE    INDEX 01 00:00:00  TRACK 08 AUDIO    TITLE "Lush Life"    PERFORMER "Katie & Maggie Noonan"    INDEX 00 05:17:12FILE "08 - Lush Life.wav" WAVE    INDEX 01 00:00:00  TRACK 09 AUDIO    TITLE "Letter Duet from The Marriage of Figaro"    PERFORMER "Katie & Maggie Noonan"    INDEX 00 08:18:22FILE "09 - Letter Duet from The Marriage of Figaro.wav" WAVE    INDEX 01 00:00:00  TRACK 10 AUDIO    TITLE "Song to the Moon from Rusalka"    PERFORMER "Katie & Maggie Noonan"    INDEX 00 02:52:11FILE "10 - Song to the Moon from Rusalka.wav" WAVE    INDEX 01 00:00:00  TRACK 11 AUDIO    TITLE "Autumn Leaves"    PERFORMER "Katie & Maggie Noonan"    INDEX 00 06:31:66FILE "11 - Autumn Leaves.wav" WAVE    INDEX 01 00:00:00  TRACK 12 AUDIO    TITLE "Pleurez mes yeux (Weep My Eyes) from Le Cid"    PERFORMER "Katie & Maggie Noonan"    INDEX 00 05:12:67FILE "12 - Pleurez mes yeux (Weep My Eyes) from Le Cid.wav" WAVE    INDEX 01 00:00:00  TRACK 13 AUDIO    TITLE "I Have a Love from West Side Story"    PERFORMER "Katie & Maggie Noonan"    INDEX 00 06:25:65FILE "13 - I Have a Love from West Side Story.wav" WAVE    INDEX 01 00:00:00

Отчет CUETools

[CUETools log; Date: 12.12.2018 0:10:55; Version: 2.1.6][CTDB TOCID: XXmejqUo_Q51AZGNhSfmuoh7Gjc-] found.Track | CTDB Status  1   | (7/7) Accurately ripped  2   | (7/7) Accurately ripped  3   | (7/7) Accurately ripped  4   | (7/7) Accurately ripped  5   | (7/7) Accurately ripped  6   | (7/7) Accurately ripped  7   | (7/7) Accurately ripped  8   | (7/7) Accurately ripped  9   | (7/7) Accurately ripped 10   | (7/7) Accurately ripped 11   | (7/7) Accurately ripped 12   | (7/7) Accurately ripped 13   | (7/7) Accurately ripped[AccurateRip ID: 001c94f9-0123e33e-b50eab0d] found.Track   [  CRC   |   V2   ] Status 01     [357ec663|8836008c] (0+0/4) No match 02     [a1c08cc8|2b354c12] (0+0/4) No match 03     [49e3a1a0|6ee3a96a] (0+0/4) No match 04     [cfa449e7|12162476] (0+0/4) No match 05     [61faa4c8|43722203] (0+0/4) No match 06     [b3f7a974|e9b13495] (0+0/4) No match 07     [926c6b0a|04701585] (0+0/4) No match 08     [cf56b771|ff38ac13] (0+0/4) No match 09     [7aea971d|5373a3d6] (0+0/4) No match 10     [1590cc5c|0afdca48] (0+0/4) No match 11     [9460efcc|33b98535] (0+0/4) No match 12     [1cc2bb80|b87af200] (0+0/4) No match 13     [980c85d7|313bad2b] (0+0/4) No matchOffsetted by 664: 01     [16d2f51b] (0/4) No match (V2 was not tested) 02     [17c9c4f8] (0/4) No match (V2 was not tested) 03     [e1b8ba90] (0/4) No match (V2 was not tested) 04     [e4fb5415] (0/4) No match (V2 was not tested) 05     [097beefa] (0/4) No match (V2 was not tested) 06     [11625c24] (0/4) No match (V2 was not tested) 07     [289a763a] (0/4) No match (V2 was not tested) 08     [6f40d8a1] (0/4) No match (V2 was not tested) 09     [eb0f67cd] (0/4) No match (V2 was not tested) 10     [68eb3794] (0/4) No match (V2 was not tested) 11     [7afe5f24] (0/4) No match (V2 was not tested) 12     [2536a668] (0/4) No match (V2 was not tested) 13     [2e792f67] (0/4) No match (V2 was not tested)Track Peak [ CRC32  ] [W/O NULL] [  LOG   ] --  100,0 [F71BF9C6] [6E9AA1CD] 01   98,8 [C29B08AE] [A6691AB4]   CRC32 02  100,0 [B7FBAE00] [080EB49B]   CRC32 03  100,0 [59D5BB41] [07DF5845]   CRC32 04   56,3 [C6046CE2] [1CDFA3FE]   CRC32 05   98,8 [4F311A68] [F426D8C6]   CRC32 06   98,8 [6875C99C] [44CF092B]   CRC32 07   99,7 [66CD39AF] [035BE8A1]   CRC32 08   99,5 [FD4E563D] [47BF5758]   CRC32 09   98,8 [B087E252] [E6143847]   CRC32 10   98,8 [7DD6E6A4] [4F0CAA7C]   CRC32 11   98,8 [15D5EDC4] [B6926F4B]   CRC32 12   98,8 [30B501D7] [4F7E5454]   CRC32 13   98,8 [C7378445] [A64D36A2]   CRC32

Об альбоме (сборнике)

Two of a Kind is the debut studio album by Australian jazz singer Katie Noonan, alongside her mother Maggie Noonan as well as The Red Fish Blue jazz trio and The Queensland Orchestra conducted by Guy Noble. The album was released in April 2004 and peaked at number 61 on the ARIA Charts and number 2 on the ARIA Classical chart on 10 May 2004.
Katie explained: After being asked to do the 10th annual Brisbane concert series ‘Woman in Voice’ with my mother, Martin Buzacott from The Queensland Symphony Orchestra suggested we make an album with the orchestra under the baton of conductor Guy Noble. We were joined by some of the finest jazz musicians, the wonderful orchestra and a great jazz horn section led by the beautiful trumpeter John Hoffman, and making this album was a pure joy. With the wonderful guidance of Lyle Chan and the recording prowess of Virginia Read we made this album live. Post release Mum and I had the great honour of touring Australia playing with our finest orchestras.

Чтобы скачать этот контент, Вам необходимо:
1. Скачать и установить торрент-клиент [клик для Windows], (для мобильного найдите на Play Маркет).
2. Кликнуть по [Скачать]


Внимание.
Если проверка ВЫ НЕ РОБОТ - не работает, значит Вы используете устаревший браузер.
Установите актуальный браузер и повторно кликните по [Скачать]
Безопасность: торрент-клиент разрешён АВ Касперского.

[asmlocator.ru].t595884.torrent 
Торрент: Зарегистрирован [ 2018-12-11 23:00 ] · 91FFEC978EF1B641B7639BD0D72F0143B6CE8B01

Скачать .torrent

Скачать

14 KB

Статус: проверено
Скачан: 0 раз
Размер: 325 MB
terms.php
[Профиль] [ЛС]
Показать сообщения:    
Ответить на тему

Текущее время: 14-Окт 20:07

Часовой пояс: UTC ± 0



Вы не можете начинать темы
Вы не можете отвечать на сообщения
Вы не можете редактировать свои сообщения
Вы не можете удалять свои сообщения
Вы не можете голосовать в опросах
Вы не можете прикреплять файлы к сообщениям
Вы можете скачивать файлы
Верим фактам, а не вранью Путина! Факт, что Правительство ведёт Россию к истреблению.
Так как численность населения падает, даже не смотря на приток эмигрантов!
Русская нация вымирает и вырождается, смешиваясь с эмигрантами!
Факт, что военных и граждан предприятий заставляют голосовать за партию Единая Россия и Путина
ПОД СТРАХОМ УВОЛЬНЕНИЯ!
Нам не нужно Правительство, блокирующее личную жизнь, интернет, нарушающее сохранность данных.
Все эти действия финансируются за счёт народа!