Есинкан Айкидо. Энциклопедия Айкидо в 10 кассетах. 1-2ч. из 10 / Yoshinkan Aikido [Айкидо, VHSRip]

Ответить на тему
Статистика раздачи
Размер:  1.34 GB   |    Зарегистрирован:  1 год 7 месяцев   |    Скачан:  2 раза

Полного источника не было: 5 месяцев 13 дней

 
   
 
 
Автор Сообщение

star21 ®

Пол: Женский

Стаж: 4 года 6 месяцев

Сообщений: 551945

Откуда: Екатеринбург

Создавать темы 23-Окт-2018 16:40

[Цитировать]

Есинкан Айкидо. Энциклопедия Айкидо в 10 кассетах. / Yoshinkan Aikido Страна: Япония
Тематика: Айкидо
Тип раздаваемого материала: Видеоурок
Продолжительность: 30 - 60 мин
Комментарий: Профессиональный (одноголосый)
Язык комментариев: русскийОписание: Айкидо ЕСИНКАН.
Школа Айкидо ЕСИНКАН под руководством патриарха Годзо Сиоды. Приемы боевого Айкидо детально объясняются учителями центрального Додзе организации Есинкан. Данная серия из 10 видеокассет - идеальное пособие для изучения основ Айкидо и усвоения техники.Основатель школы Есинкан, ГОДЗО СИОДА, родился 9 сентября 1915 года в Токио. Еще с начальной школы он занимался Дзюдо и Кэндо, а в 17 лет поступил к основателю Айкидо - учителю МОРИХЭЮ УЭСИБЕ. В последующие 9 лет был одним их его ближайших учеников. В 1946 году получил наивысший 9 дан. В 1954 году формирует собственную школу под названием ЕСИНКАН. С 1963 года в полицейских органах вводится специальное изучение Айкидо, оно является обязательным предметом для женщин, работающих в полиции.. - Базовые движения: КАМАЭ, СЭЙДЗАХО, ТАЙНО ХЭНКО, УКЭМИ.
2ч. - Базовые приемы: СИХО-НАГЕ (Броски в четырех направлениях)Доп. информация: На сколько смог улучшил качество картинки и почистил звук.Качество: VHSRip
Формат: AVI
Видео кодек: H.264
Аудио кодек: PCM
Видео: 720*540 (4:3), 29.970 fps, 1421 Kbps
Аудио: PCM, 44.1 KHz, 2 channels, 411.2 Kbps

MI

General
Complete name : D:\РАЗДАЧИ\Есинкан Айкидо. Энциклопедия Айкидо в 10 кассетах\Айкидо Есинкан - 1.avi
Format : AVI
Format/Info : Audio Video Interleave
File size : 737 MiB
Duration : 36 min 15 s
Overall bit rate : 2 843 kb/s
Writing library : VirtualDub build 35576/releaseVideo
ID : 0
Format : AVC
Format/Info : Advanced Video Codec
Format profile : High@L3.1
Format settings : CABAC / 4 Ref Frames
Format settings, CABAC : Yes
Format settings, ReFrames : 4 frames
Codec ID : H264
Duration : 36 min 15 s
Bit rate : 1 421 kb/s
Width : 720 pixels
Height : 540 pixels
Display aspect ratio : 4:3
Frame rate : 29.970 (30000/1001) FPS
Color space : YUV
Chroma subsampling : 4:2:0
Bit depth : 8 bits
Scan type : Progressive
Bits/(Pixel*Frame) : 0.122
Stream size : 368 MiB (50%)
Writing library : x264 core 152 r2851bm ba24899
Encoding settings : cabac=1 / ref=3 / deblock=1:0:0 / analyse=0x3:0x113 / me=hex / subme=7 / psy=1 / psy_rd=1.00:0.00 / mixed_ref=1 / me_range=16 / chroma_me=1 / trellis=1 / 8x8dct=1 / cqm=0 / deadzone=21,11 / fast_pskip=1 / chroma_qp_offset=-2 / threads=12 / lookahead_threads=2 / sliced_threads=0 / nr=0 / decimate=1 / interlaced=0 / bluray_compat=0 / constrained_intra=0 / bframes=3 / b_pyramid=2 / b_adapt=1 / b_bias=0 / direct=1 / weightb=1 / open_gop=0 / weightp=2 / keyint=250 / keyint_min=25 / scenecut=40 / intra_refresh=0 / rc_lookahead=40 / rc=crf / mbtree=1 / crf=23.0 / qcomp=0.60 / qpmin=0 / qpmax=69 / qpstep=4 / ip_ratio=1.40 / aq=1:1.00Audio
ID : 1
Format : PCM
Format settings : Little / Signed
Codec ID : 1
Duration : 36 min 15 s
Bit rate mode : Constant
Bit rate : 1 411.2 kb/s
Channel(s) : 2 channels
Sampling rate : 44.1 kHz
Bit depth : 16 bits
Stream size : 366 MiB (50%)
Alignment : Aligned on interleaves
Interleave, duration : 33 ms (1.00 video frame)
Interleave, preload duratio : 500 ms

Скриншоты 1ч.

Скриншоты 2ч.

Внимание! Раздача ведётся путём добавления новых частей!

Раздача ведётся путём добавления новых частей; при каждом добавлении создаётся новый торрент. Чтобы начать докачку новой части, пользователям необходимо сделать следующее:
(1) остановить скачивание,
(2) удалить старый торрент у себя из клиента (старые серии удалять не надо),
(3) скачать новый торрент и запустить его у себя в клиенте вместо старого, при этом указать клиенту путь в старую папку куда и должно происходить скачивание новых серий.
Ваш клиент при этом должен произвести хеширование (проверку) старой папки (если не производит сам - помогите ему сделать это), и будет докачивать только те серии которых у вас ещё нет. Старые серии при этом не удаляются, а продолжают раздаваться!

Чтобы скачать этот контент, Вам необходимо:
1. Скачать и установить торрент-клиент [клик для Windows], (для мобильного найдите на Play Маркет).
2. Кликнуть по [Скачать]


Внимание.
Если проверка ВЫ НЕ РОБОТ - не работает, значит Вы используете устаревший браузер.
Установите актуальный браузер и повторно кликните по [Скачать]

Запрещён Яндекс браузер. Загрузка файлов им является ошибочной.
Безопасность: торрент-клиент разрешён АВ Касперского.

[asmlocator.ru].t580048.torrent 
Торрент: Зарегистрирован [ 2018-10-23 16:40 ] · 9897BDC335C44D8851D77C148EB081164FBBA9FA

Скачать .torrent

Скачать

14 KB

Статус: проверено
Скачан: 2 раз
Размер: 1.34 GB
terms.php
[Профиль] [ЛС]
Показать сообщения:    
Ответить на тему

Текущее время: 31-Май 09:35

Часовой пояс: UTC ± 0



Вы не можете начинать темы
Вы не можете отвечать на сообщения
Вы не можете редактировать свои сообщения
Вы не можете удалять свои сообщения
Вы не можете голосовать в опросах
Вы не можете прикреплять файлы к сообщениям
Вы можете скачивать файлы
Верим фактам, а не вранью Путина! Факт, что Правительство ведёт Россию к истреблению.
Так как численность населения падает, даже не смотря на приток эмигрантов!
Русская нация вымирает и вырождается, смешиваясь с эмигрантами!
Факт, что военных и граждан предприятий заставляют голосовать за партию Единая Россия и Путина
ПОД СТРАХОМ УВОЛЬНЕНИЯ!
Нам не нужно Правительство, блокирующее личную жизнь, интернет, нарушающее сохранность данных.
Все эти действия финансируются за счёт народа!