[TR24][OF] 2Cellos - Score - 2017 (Score, Classical, Instrumental)

Reply to topic
DL-List and Torrent activity
Size:  608 MB   |    Registered:  10 months   |    Completed:  1 time

Seeder not seen: 26 minutes

 
   
 
 
Author Message

star21 ®

Gender: Female

Longevity: 3 years 9 months

Posts: 551989

Location: Екатеринбург

Post 23-Oct-2018 08:20

[Quote]

2Cellos / Score Формат записи/Источник записи: [TR24][OF]
Наличие водяных знаков: Нет
Год издания/переиздания диска: 2017
Жанр: Classical, Instrumental
Издатель (лейбл): Portrait/Sony Masterworks
Продолжительность: 01:01:59
Наличие сканов в содержимом раздачи: Только обложка альбомаТреклист:
01. Ramin Djawadi - Medley From Game of Thrones (5:04)
02. Enya, Roma Ryan, Nicky Ryan, Howard Shore - May It Be From The Lord Of The Rings: The Fellowship Of The Ring (3:56)
03. James Horner - For The Love Of A Princess From Braveheart (5:11)
04. Francis Lai, Carl Sigman - Love Story From Love Story (3:24)
05. Ennio Morricone, Andrea Morricone - Cinema Paradiso From Cinema Paradiso (3:59)
06. Henry Mancini, Johnny Mercer - Moon River From Breakfast At Tiffany’s (3:13)
07. Nino Rota - Love Theme from The Godfather From The Godfather (3:54)
08. James Horner, Will Jennings - My Heart Will Go On From Titanic (5:44)
09. Hans Zimmer - Theme From Rain Man (4:41)
10. Stanley Myers - Cavatina From The Deer Hunter (3:43)
11. Ennio Morricone - Maléna From Malèna (4:10)
12. John Williams - Theme From Schindler’s List (4:22)
13. Vangelis - Titles From Chariots of Fire (3:40)
14. Hans Zimmer, Lisa Gerrard, Klaus Badelt - Now We Are Free From Gladiator (6:05)Контейнер: FLAC (*.flac)
Тип рипа: tracksРазрядность: 24/44,1
Формат: WAV (flac.ape.wv)
Количество каналов: 2.0

Лог проверки качества

foobar2000 1.3.10 / Замер динамического диапазона (DR) 1.1.1Дата отчёта:  2018-10-23 09:08:38--------------------------------------------------------------------------------Анализ:   2Cellos / Score--------------------------------------------------------------------------------DR         Пики         RMS           Продолжительность трека--------------------------------------------------------------------------------DR6       -1.00 дБ    -9.49 дБ      5:03 01-Game of Thrones MedleyDR8       -1.09 дБ   -14.78 дБ      3:56 02-May it BeDR8       -1.08 дБ   -12.53 дБ      5:11 03-For the Love of a PrincessDR11      -1.09 дБ   -16.77 дБ      3:24 04-Love StoryDR8       -1.06 дБ   -13.56 дБ      3:59 05-Cinema ParadisoDR9       -1.09 дБ   -13.88 дБ      3:13 06-Moon RiverDR7       -1.07 дБ   -13.11 дБ      3:54 07-Love Theme from The GodfatherDR7       -1.07 дБ   -13.06 дБ      5:44 08-My Heart Will Go OnDR6       -1.04 дБ   -11.92 дБ      4:41 09-Rain Man ThemeDR11      -1.09 дБ   -15.69 дБ      3:43 10-CavatinaDR9       -1.09 дБ   -14.85 дБ      4:10 11-MalenaDR9       -1.07 дБ   -13.84 дБ      4:22 12-Schindler's List Main ThemeDR5       -1.07 дБ    -9.47 дБ      3:40 13-Titles from Chariots of FireDR8       -1.07 дБ   -14.02 дБ      6:03 14-Now We are Free--------------------------------------------------------------------------------Количество треков: 14Реальные значения DR: DR8Частота:   44100 ГцКаналов:   2Разрядность:   24Битрейт:   1332 кбит/сКодек:   FLAC================================================================================
Источник (релизер): https://www.7digital.com/artist/2cellos/release/score-6027358Спасибо 24bit-music.info

To download the content you need:
1. Download and install torrent client [for Windows] or for mobile system
2. Click on [Download]
Attention.
If the test YOU are NOT a ROBOT - does not work, then You are using an outdated browser.
Install the current browser and click on [Download]
Security: torrent client is allowed by Kaspersky.

[asmlocator.ru].t579919.torrent 
Torrent: Registered [ 2018-10-23 08:20 ] · 2079E689EDFF7B22EE968A07A16C58AF3F723F74

Download .torrent

Download

13 KB

Status: checked
Completed: 1 times
Size: 608 MB
terms.php
[Profile] [PM]
Display posts:    
Reply to topic

Current time is: 23-Aug 16:46

All times are UTC ± 0



You cannot post new topics in this forum
You cannot reply to topics in this forum
You cannot edit your posts in this forum
You cannot delete your posts in this forum
You cannot vote in polls in this forum
You cannot attach files in this forum
You can download files in this forum