[TR24][SM][OF][FM] Мэнди / Mandy (by Johann Johannsson) - 2018 (Score)

Reply to topic
DL-List and Torrent activity
Size:  424 MB   |    Registered:  10 months 10 days   |    Completed:  0 times

Seeder not seen: Never

 
   
 
 
Author Message

star21 ®

Gender: Female

Longevity: 3 years 9 months

Posts: 551989

Location: Екатеринбург

Post 12-Oct-2018 18:15

[Quote]

Johann Johannsson / Мэнди / Mandy Формат записи/Источник записи: [TR24][SM][OF][FM]
Наличие водяных знаков: Нет
Год издания/переиздания диска: 2018
Жанр: Score
Продолжительность: 00:41:18
Наличие сканов в содержимом раздачи: Только обложка альбома
Источник (релизер): qobuz
Контейнер: FLAC (*.flac)
Тип рипа: tracks
Разрядность: 24/48
Количество каналов: 2.0
Треклист:
1. Seeker of the Serpent’s Eye (2:12)
2. Starling (2:15)
3. Mandy Love Theme (4:39)
4. Horns of Abraxas (1:31)
5. Black Skulls (2:46)
6. Death and Ashes (4:39)
7. Sand (2:03)
8. Red (1:33)
9. Forging the Beast (1:47)
10. Dive-Bomb Blues (2:15)
11. Waste (2:56)
12. Temple (3:00)
13. Burning Church (1:38)
14. Memories (2:35)
15. Children of the New Dawn (5:32)

foo_dr

foobar2000 1.4 / Dynamic Range Meter 1.1.1log date: 2018-09-15 02:59:54--------------------------------------------------------------------------------Analyzed: Jóhann Jóhannsson / Mandy--------------------------------------------------------------------------------DR         Peak         RMS     Duration Track--------------------------------------------------------------------------------DR7       -0.11 dB   -10.18 dB      2:12 01-Seeker of the Serpent's EyeDR10      -0.17 dB   -16.14 dB      2:15 02-StarlingDR9       -0.11 dB   -13.96 dB      4:39 03-Mandy Love ThemeDR9       -0.11 dB   -12.69 dB      1:31 04-Horns of AbraxasDR4       -0.10 dB    -7.94 dB      2:46 05-Black SkullsDR6       -0.11 dB    -9.67 dB      4:39 06-Death and AshesDR5       -0.11 dB    -7.83 dB      2:03 07-SandDR7       -0.11 dB   -11.23 dB      1:33 08-RedDR3       -0.10 dB    -4.98 dB      1:46 09-Forging the BeastDR5       -0.10 dB    -8.77 dB      2:15 10-Dive-Bomb BluesDR4       -0.10 dB    -5.74 dB      2:56 11-WasteDR6       -0.11 dB    -8.62 dB      3:00 12-TempleDR4       -0.10 dB    -6.54 dB      1:38 13-Burning ChurchDR5       -0.11 dB   -10.20 dB      2:35 14-MemoriesDR9       -0.11 dB   -12.01 dB      5:31 15-Children of the New Dawn--------------------------------------------------------------------------------Number of tracks:  15Official DR value: DR6Samplerate:        48000 HzChannels:          2Bits per sample:   24Bitrate:           1569 kbpsCodec:             FLAC================================================================================

To download the content you need:
1. Download and install torrent client [for Windows] or for mobile system
2. Click on [Download]
Attention.
If the test YOU are NOT a ROBOT - does not work, then You are using an outdated browser.
Install the current browser and click on [Download]
Security: torrent client is allowed by Kaspersky.

[asmlocator.ru].t576640.torrent 
Torrent: Registered [ 2018-10-12 18:15 ] · 7E7F042945F1F263D2963B4BB6B7A59D6AA62E0C

Download .torrent

Download

18 KB

Status: checked
Completed: 0 times
Size: 424 MB
terms.php
[Profile] [PM]
Display posts:    
Reply to topic

Current time is: 23-Aug 16:46

All times are UTC ± 0



You cannot post new topics in this forum
You cannot reply to topics in this forum
You cannot edit your posts in this forum
You cannot delete your posts in this forum
You cannot vote in polls in this forum
You cannot attach files in this forum
You can download files in this forum