[TR24][OF][FM] The Genius of Film Music: Hollywood Blockbusters 1980s - 2018s - Dirk Brosse, London Philharmonic Orchestra (Score, Orchestral, Classical)

Ответить на тему
Статистика раздачи
Размер:  1,74 GB   |    Зарегистрирован:  1 год   |    Скачан:  0 раз

Полного источника не было: 7 месяцев 27 дней

 
   
 
 
Автор Сообщение

star21 ®

Пол: Женский

Стаж: 3 года 11 месяцев

Сообщений: 551988

Откуда: Екатеринбург

Создавать темы 09-Окт-2018 18:40

[Цитировать]

The Genius of Film Music - Hollywood Blockbusters 1980s to 2000s Формат записи/Источник записи: [TR24][OF][FM]
Наличие водяных знаков: Нет
Год издания: 2018
Жанр: Score, Orchestral, Classical
Издатель (лейбл): LPO
Продолжительность: 01:36:37
Наличие сканов в содержимом раздачи: Буклет PDF
Контейнер: FLAC (*.flac)
Тип рипа: tracks
Разрядность: 24/96
Формат: PCM
Количество каналов: 2.0
Источник (релизер): qobuz.com

Треклист:

John Williams (b.1932)
1. Main Title (From "Star Wars") (05:40)
2. Princess Leia's Theme (From "Star Wars") (04:33)
3. Imperial March "Darth Vader's Theme" (From "Star Wars") 03:08Vangelis (b.1943)
4. Main Theme (From "Chariots of Fire") [Arr. D. Kokx for Orchestra] (03:37)Marvin Hamlisch (1944 - 2012)
5. Love Theme (From "Sophie's Choice") (04:57)Ennio Morricone (b.1928)
6. Gabriel's Oboe (From "The Mission") (03:49)Luis Bacalov (1933 - 2017)
7. Main Theme (From "Il postino") [Arr. N. Raine for Orchestra] (04:35)Angelo Badalamenti (b.1937)
8. Laura Palmer's Theme (From "Twin Peaks") [Arr. K. Landrum for Orchestra] (08:10)Elmer Bernstein (1922 - 2004)
9. The Age of Innocence Suite (Arr. E. Bernstein & P. Russ for Orchestra) (07:25)Danny Elfman (b.1953)
10. The Nightmare Before Christmas Suite (Arr. M. McKenzie for Orchestra) (08:18)Nicola Piovani (b.1946)
11. Buongiorno principessa (From "La vita è bella") (04:27)
12. Grand Hotel Fox Trot (From "La vita è bella") (01:59)
13. La fuga (From "La vita è bella") (02:18)
14. Il carrarmato (From "La vita è bella") (03:11)Jerry Goldsmith (1929 - 2004)
15. Mulan Suite (Arr. A. Courage for Orchestra) (07:28)Don Davis (b.1957)
16. The Matrix Reloaded Suite (09:32)Hans Zimmer (b. 1957)
17. Gladiator Suite (Arr. N. Raine for Orchestra) (08:17)John Williams
18. Raiders March (From "Raiders of the Lost Ark") [Arr. N. Raine for Orchestra] (05:18)

Исполнители:

DIRK BROSSé conductor
LONDON PHILHARMONIC ORCHESTRA
Vesselin Gellev leader
Recorded live at Southbank Centre’s ROYAL FESTIVAL HALL, London

Лог проверки качества

foobar2000 1.4 / Dynamic Range Meter 1.1.1log date: 2018-10-09 18:46:22--------------------------------------------------------------------------------Analyzed: London Philharmonic Orchestra & Dirk Brossé / The Genius of Film Music: Hollywood Blockbusters 1980s to 2000s (Live)--------------------------------------------------------------------------------DR         Peak         RMS     Duration Track--------------------------------------------------------------------------------DR11      -0.30 dB   -14.86 dB      5:40 01-Main Title (From 'Star Wars') [Live]DR12      -1.35 dB   -20.79 dB      4:33 02-Princess Leia's Theme (From 'Star Wars') [Live]DR12      -0.30 dB   -15.97 dB      3:08 03-Imperial March 'Darth Vader's Theme' (From 'Star Wars') [Live]DR11      -1.78 dB   -17.31 dB      3:37 04-Main Theme (From 'Chariots of Fire') [Arr. D. Kokx for Orchestra] [Live]DR13      -0.30 dB   -18.76 dB      4:57 05-Love Theme (From 'Sophie's Choice') [Live]DR12      -6.40 dB   -22.29 dB      3:49 06-Ian Hardwick, Gabriel's Oboe (From 'The Mission') [Live]DR12      -8.61 dB   -25.70 dB      4:35 07-Main Theme (From 'Il postino') [Arr. N. Raine for Orchestra] [Live]DR10      -1.53 dB   -16.78 dB      8:10 08-Laura Palmer's Theme (From 'Twin Peaks') [Arr. K. Landrum for Orchestra] [Live]DR11      -2.53 dB   -19.12 dB      7:25 09-The Age of Innocence Suite (Arr. E. Bernstein & P. Russ for Orchestra) [Live]DR11      -0.67 dB   -16.11 dB      8:18 10-The Nightmare Before Christmas Suite (Arr. M. McKenzie for Orchestra) [Live]DR11      -5.40 dB   -21.30 dB      4:27 11-Buongiorno principessa (From 'La vita e bella') [Live]DR15      -0.29 dB   -19.31 dB      1:59 12-Grand Hotel Fox Trot (From 'La vita e bella') [Live]DR16      -1.14 dB   -24.59 dB      2:18 13-La fuga (From 'La vita e bella') [Live]DR14      -3.97 dB   -23.59 dB      3:11 14-Il carrarmato (From 'La vita e bella') [Live]DR12      -1.30 dB   -19.76 dB      7:28 15-Mulan Suite (Arr. A. Courage for Orchestra) [Live]DR11      -0.76 dB   -17.16 dB      9:32 16-The Matrix Reloaded Suite (Live)DR12      -0.10 dB   -17.05 dB      8:17 17-Gladiator Suite (Arr. N. Raine for Orchestra) [Live]DR11      -0.39 dB   -15.86 dB      5:18 18-Raiders March (From 'Raiders of the Lost Ark') [Arr. N. Raine for Orchestra] [Live]--------------------------------------------------------------------------------Number of tracks:  18Official DR value: DR12Samplerate:        96000 HzChannels:          2Bits per sample:   24Bitrate:           2686 kbpsCodec:             FLAC================================================================================

Об альбоме (сборнике)

The Genius of Film Music: Hollywood Blockbusters 1980s to 2000s is the second compilation of film music on the LPO label. It joins LPO0086, which took music from films of the 1960s to 1980s. The two releases form a great set of some of the best film scores of the last 60 years, including well loved classics such as The Godfather, Lawrence of Arabia, Star Wars, Indiana Jones, and Psycho but also an opportunity to discover some less well known scores.The London Philharmonic Orchestra has a long history with film music, having recorded the original soundtracks to films as varied as the Lord of the Rings trilogy, Lawrence of Arabia, Philadelphia, The Mission, and many more.The conductor, Dirk Brossé is a film music specialist, and internationally well respected as both a conductor and a composer. His score for 2012’s Parade’s End was nominated for an Emmy Award, and he was chosen by John Williams as Principal Conductor of the ‘Star Wars in Concert World Tour’.The pieces on this release were recorded live in concert at Southbank Centre’s Royal Festival Hall, London. The concert was well reviewed with Classical Source particularly noting oboist Ian Hardwick’s ‘absolutely captivating performance ...[with] poise and grace’ in Morricone’s Gabriel’s Oboe.The previous film music release on the label (LPO0086) was itself well reviewed. It was a Classic FM featured album, noting ‘it’s a particular thrill to hear some of the less familiar scores’. ‘The London Philharmonic Orchestra plays all the music with great panache, bringing it alive without the need for images’ Classical Source.

Чтобы скачать этот контент, Вам необходимо:
1. Скачать и установить торрент-клиент [клик для Windows], (для мобильного найдите на Play Маркет).
2. Кликнуть по [Скачать]


Внимание.
Если проверка ВЫ НЕ РОБОТ - не работает, значит Вы используете устаревший браузер.
Установите актуальный браузер и повторно кликните по [Скачать]
Безопасность: торрент-клиент разрешён АВ Касперского.

[asmlocator.ru].t575706.torrent 
Торрент: Зарегистрирован [ 2018-10-09 18:40 ] · E2F5CBD0181ED0A20CDEEEA6FF91891DD851A41A

Скачать .torrent

Скачать

20 KB

Статус: проверено
Скачан: 0 раз
Размер: 1,74 GB
terms.php
[Профиль] [ЛС]
Показать сообщения:    
Ответить на тему

Текущее время: 21-Окт 14:09

Часовой пояс: UTC ± 0



Вы не можете начинать темы
Вы не можете отвечать на сообщения
Вы не можете редактировать свои сообщения
Вы не можете удалять свои сообщения
Вы не можете голосовать в опросах
Вы не можете прикреплять файлы к сообщениям
Вы можете скачивать файлы
Верим фактам, а не вранью Путина! Факт, что Правительство ведёт Россию к истреблению.
Так как численность населения падает, даже не смотря на приток эмигрантов!
Русская нация вымирает и вырождается, смешиваясь с эмигрантами!
Факт, что военных и граждан предприятий заставляют голосовать за партию Единая Россия и Путина
ПОД СТРАХОМ УВОЛЬНЕНИЯ!
Нам не нужно Правительство, блокирующее личную жизнь, интернет, нарушающее сохранность данных.
Все эти действия финансируются за счёт народа!