(Marches) [CD] VA - 18 Of The Greatest Marches - Unknown, FLAC (tracks+.cue), lossless

Ответить на тему
Статистика раздачи
Размер:  320 MB   |    Зарегистрирован:  1 год 1 месяц   |    Скачан:  0 раз

Полного источника не было: Никогда

 
   
 
 
Автор Сообщение

star21 ®

Пол: Женский

Стаж: 4 года

Сообщений: 551946

Откуда: Екатеринбург

Создавать темы 24-Сен-2018 16:25

[Цитировать]

18 Of The Greatest Marches Жанр: Marches
Носитель: CD
Страна-производитель диска (релиза): EEC
Год издания: Unknown
Издатель (лейбл): Tring International PLC
Номер по каталогу: GRF251
Аудиокодек: FLAC (*.flac)
Тип рипа: tracks+.cue
Битрейт аудио: lossless
Продолжительность: 0:54:14.
Источник (релизер): clustert
Наличие сканов в содержимом раздачи: да
Треклист:
01. Ringlig Bros. Grand Entry [0:02:14.32]
02. Colonel Bogey [0:03:31.10]
03. Invercargill [0:02:11.68]
04. The Billboard Match [0:02:40.02]
05. March Salutation [0:02:44.63]
06. The Thunderer [0:02:39.57]
07. Hands Across The Sea [0:02:46.30]
08. Stars And Stripes Forever [0:02:33.40]
09. King Cotton [0:01:57.25]
10. Under The Double Eagle [0:01:55.50]
11. Gladiator's Farewell [0:03:10.15]
12. Semper Fidelis [0:03:41.63]
13. Old Comrades [0:04:18.57]
14. Victory March [0:04:19.15]
15. Pomp And Circumstance [0:05:46.28]
16. U.S. Field Artillery [0:02:13.02]
17. Manhattan Beach [0:02:12.08]
18. Diplomat March [0:03:17.35]

Лог создания рипа

Exact Audio Copy V1.0 beta 3 from 29. August 2011Отчёт EAC об извлечении, выполненном 31. октября 2015, 0:17Army Band / 18 Of The Greatest MarchesДисковод: ASUS    DRW-1814BLT   Adapter: 4  ID: 0Режим чтения                 : ДостоверностьИспользование точного потока : ДаОтключение кэша аудио        : ДаИспользование указателей C2  : НетКоррекция смещения при чтении                     : 6Способность читать области Lead-in и Lead-out     : НетЗаполнение пропущенных сэмплов тишиной            : ДаУдаление блоков с тишиной в начале и конце        : НетПри вычислениях CRC использовались нулевые сэмплы : ДаИнтерфейс                                         : Встроенный Win32-интерфейс для Win NT/2000Обработка зазоров                                 : Добавлено к предыдущему трекуВыходной формат          : Пользовательский кодировщикВыбранный битрейт        : 128 kBit/sКачество                 : ВысокийДобавление ID3-тега      : НетУтилита сжатия           : C:\Program Files\Exact Audio Copy\Flac\flac.exeДополнительные параметры :  -V -8 -T "Genre=%genre%" -T "Artist=%artist%" -T "Title=%title%" -T "Album=%albumtitle%" -T "Date=%year%" -T "Tracknumber=%tracknr%" -T "Comment=EAC1.0b2 FLAC -8" %source%TOC извлечённого CD     Трек |   Старт  | Длительность | Начальный сектор | Конечный сектор    ---------------------------------------------------------------------       1  |  0:00.33 |    2:14.32   |          33      |      10114       2  |  2:14.65 |    3:31.10   |       10115      |      25949       3  |  5:46.00 |    2:11.68   |       25950      |      35842       4  |  7:57.68 |    2:40.02   |       35843      |      47844       5  | 10:37.70 |    2:44.63   |       47845      |      60207       6  | 13:22.58 |    2:39.57   |       60208      |      72189       7  | 16:02.40 |    2:46.30   |       72190      |      84669       8  | 18:48.70 |    2:33.40   |       84670      |      96184       9  | 21:22.35 |    1:57.25   |       96185      |     104984      10  | 23:19.60 |    1:55.50   |      104985      |     113659      11  | 25:15.35 |    3:10.15   |      113660      |     127924      12  | 28:25.50 |    3:41.63   |      127925      |     144562      13  | 32:07.38 |    4:18.57   |      144563      |     163969      14  | 36:26.20 |    4:19.15   |      163970      |     183409      15  | 40:45.35 |    5:46.28   |      183410      |     209387      16  | 46:31.63 |    2:13.02   |      209388      |     219364      17  | 48:44.65 |    2:12.08   |      219365      |     229272      18  | 50:56.73 |    3:17.35   |      229273      |     244082Трек  1     Имя файла R:\Раздача 55\18 Of The Greatest Marches\01 Ringlig Bros. Grand Entry.wav     Длина предзазора  0:00:02.33     Пиковый уровень 93.6 %     Скорость извлечения 2.4 X     Качество трека 99.9 %     CRC теста 670B5FBB     CRC копии 670B5FBB     Точность не определена (достоверность 1)  [7184EAA2], AccurateRip вернул [9B80C0D6]  (AR v2)     Копирование... OKТрек  2     Имя файла R:\Раздача 55\18 Of The Greatest Marches\02 Colonel Bogey.wav     Длина предзазора  0:00:01.00     Пиковый уровень 91.0 %     Скорость извлечения 3.1 X     Качество трека 99.9 %     CRC теста 799FE2C9     CRC копии 799FE2C9     Точность не определена (достоверность 1)  [0BF07A02], AccurateRip вернул [B8ABB1DB]  (AR v2)     Копирование... OKТрек  3     Имя файла R:\Раздача 55\18 Of The Greatest Marches\03 Invercargill.wav     Длина предзазора  0:00:01.00     Пиковый уровень 73.7 %     Скорость извлечения 4.3 X     Качество трека 100.0 %     CRC теста 789CF4D9     CRC копии 789CF4D9     Точность не определена (достоверность 1)  [CA21A8C1], AccurateRip вернул [1C7AD653]  (AR v2)     Копирование... OKТрек  4     Имя файла R:\Раздача 55\18 Of The Greatest Marches\04 The Billboard Match.wav     Длина предзазора  0:00:01.00     Пиковый уровень 81.7 %     Скорость извлечения 3.2 X     Качество трека 99.9 %     CRC теста 0D7EE8C2     CRC копии 0D7EE8C2     Точность не определена (достоверность 1)  [3A5015D9], AccurateRip вернул [4AEDF7D2]  (AR v2)     Копирование... OKТрек  5     Имя файла R:\Раздача 55\18 Of The Greatest Marches\05 March Salutation.wav     Длина предзазора  0:00:01.00     Пиковый уровень 93.0 %     Скорость извлечения 5.0 X     Качество трека 100.0 %     CRC теста 8F260096     CRC копии 8F260096     Точность не определена (достоверность 1)  [370545E9], AccurateRip вернул [18A7C611]  (AR v2)     Копирование... OKТрек  6     Имя файла R:\Раздача 55\18 Of The Greatest Marches\06 The Thunderer.wav     Длина предзазора  0:00:01.00     Пиковый уровень 94.8 %     Скорость извлечения 5.2 X     Качество трека 100.0 %     CRC теста 69289ACA     CRC копии 69289ACA     Точность не определена (достоверность 1)  [2F22268F], AccurateRip вернул [100D9E27]  (AR v2)     Копирование... OKТрек  7     Имя файла R:\Раздача 55\18 Of The Greatest Marches\07 Hands Across The Sea.wav     Длина предзазора  0:00:01.00     Пиковый уровень 93.6 %     Скорость извлечения 5.4 X     Качество трека 100.0 %     CRC теста B5F5FC11     CRC копии B5F5FC11     Точность не определена (достоверность 1)  [D3E8988F], AccurateRip вернул [971FA149]  (AR v2)     Копирование... OKТрек  8     Имя файла R:\Раздача 55\18 Of The Greatest Marches\08 Stars And Stripes Forever.wav     Длина предзазора  0:00:01.00     Пиковый уровень 93.1 %     Скорость извлечения 5.6 X     Качество трека 100.0 %     CRC теста DDD3F2C2     CRC копии DDD3F2C2     Точность не определена (достоверность 1)  [B2E64111], AccurateRip вернул [77BAFFA3]  (AR v2)     Копирование... OKТрек  9     Имя файла R:\Раздача 55\18 Of The Greatest Marches\09 King Cotton.wav     Длина предзазора  0:00:01.00     Пиковый уровень 95.1 %     Скорость извлечения 5.4 X     Качество трека 100.0 %     CRC теста 0C64A8BA     CRC копии 0C64A8BA     Точность не определена (достоверность 1)  [445CC38C], AccurateRip вернул [10B91A6B]  (AR v2)     Копирование... OKТрек 10     Имя файла R:\Раздача 55\18 Of The Greatest Marches\10 Under The Double Eagle.wav     Длина предзазора  0:00:01.00     Пиковый уровень 91.3 %     Скорость извлечения 5.5 X     Качество трека 100.0 %     CRC теста C98C49A9     CRC копии C98C49A9     Точность не определена (достоверность 1)  [830135A3], AccurateRip вернул [AAE010B7]  (AR v2)     Копирование... OKТрек 11     Имя файла R:\Раздача 55\18 Of The Greatest Marches\11 Gladiator's Farewell.wav     Длина предзазора  0:00:01.00     Пиковый уровень 93.6 %     Скорость извлечения 4.4 X     Качество трека 99.9 %     CRC теста 0CBB089E     CRC копии 0CBB089E     Точность не определена (достоверность 1)  [967ADB9A], AccurateRip вернул [F7FAF4F3]  (AR v2)     Копирование... OKТрек 12     Имя файла R:\Раздача 55\18 Of The Greatest Marches\12 Semper Fidelis.wav     Длина предзазора  0:00:01.00     Пиковый уровень 91.6 %     Скорость извлечения 6.7 X     Качество трека 100.0 %     CRC теста F2A66B50     CRC копии F2A66B50     Точность не определена (достоверность 1)  [CC1341AC], AccurateRip вернул [D784375D]  (AR v2)     Копирование... OKТрек 13     Имя файла R:\Раздача 55\18 Of The Greatest Marches\13 Old Comrades.wav     Длина предзазора  0:00:01.00     Пиковый уровень 92.6 %     Скорость извлечения 7.1 X     Качество трека 100.0 %     CRC теста 53A3A1CF     CRC копии 53A3A1CF     Точность не определена (достоверность 1)  [D323B79C], AccurateRip вернул [2138550C]  (AR v2)     Копирование... OKТрек 14     Имя файла R:\Раздача 55\18 Of The Greatest Marches\14 Victory March.wav     Длина предзазора  0:00:01.00     Пиковый уровень 94.7 %     Скорость извлечения 7.4 X     Качество трека 100.0 %     CRC теста 6812DC44     CRC копии 6812DC44     Точность не определена (достоверность 1)  [A61D3496], AccurateRip вернул [0BFA1DF7]  (AR v2)     Копирование... OKТрек 15     Имя файла R:\Раздача 55\18 Of The Greatest Marches\15 Pomp And Circumstance.wav     Длина предзазора  0:00:01.00     Пиковый уровень 91.5 %     Скорость извлечения 8.0 X     Качество трека 100.0 %     CRC теста B2D0F0E5     CRC копии B2D0F0E5     Точность не определена (достоверность 1)  [9F53712B], AccurateRip вернул [4D149F19]  (AR v2)     Копирование... OKТрек 16     Имя файла R:\Раздача 55\18 Of The Greatest Marches\16 U.S. Field Artillery.wav     Длина предзазора  0:00:01.00     Пиковый уровень 94.6 %     Скорость извлечения 7.1 X     Качество трека 100.0 %     CRC теста 82BF9B20     CRC копии 82BF9B20     Точность не определена (достоверность 1)  [4F503C29], AccurateRip вернул [F07DBDC4]  (AR v2)     Копирование... OKТрек 17     Имя файла R:\Раздача 55\18 Of The Greatest Marches\17 Manhattan Beach.wav     Длина предзазора  0:00:01.00     Пиковый уровень 92.9 %     Скорость извлечения 4.8 X     Качество трека 99.9 %     CRC теста 2B99A9B0     CRC копии 2B99A9B0     Точность не определена (достоверность 1)  [A2C243C9], AccurateRip вернул [9F61DB08]  (AR v2)     Копирование... OKТрек 18     Имя файла R:\Раздача 55\18 Of The Greatest Marches\18 Diplomat March.wav     Длина предзазора  0:00:01.00     Пиковый уровень 93.1 %     Скорость извлечения 7.9 X     Качество трека 100.0 %     CRC теста 966B3FE2     CRC копии 966B3FE2     Точность не определена (достоверность 1)  [51376F99], AccurateRip вернул [EC04DCB6]  (AR v2)     Копирование... OKНи один трек не прошёл проверки на точностьВ вашей базе может быть иной вариант штамповки дискаОшибок не произошлоКонец отчёта==== Контрольная сумма отчёта 4858422A1A2260605F40122E9502F9528002BB5A5B27B3ABAEDB14498E0C41C3 ====

Содержание индексной карты (.CUE)

REM GENRE ClassicalREM DISCID 090CB612REM COMMENT "ExactAudioCopy v1.0b3"PERFORMER "Army Band"TITLE "18 Of The Greatest Marches"FILE "01 Ringlig Bros. Grand Entry.wav" WAVE  TRACK 01 AUDIO    TITLE "Ringlig Bros. Grand Entry"    PERFORMER "Army Band"    PREGAP 00:00:33    INDEX 01 00:00:00  TRACK 02 AUDIO    TITLE "Colonel Bogey"    PERFORMER "Army Band"    INDEX 00 02:13:32FILE "02 Colonel Bogey.wav" WAVE    INDEX 01 00:00:00  TRACK 03 AUDIO    TITLE "Invercargill"    PERFORMER "Army Band"    INDEX 00 03:30:10FILE "03 Invercargill.wav" WAVE    INDEX 01 00:00:00  TRACK 04 AUDIO    TITLE "The Billboard Match"    PERFORMER "Army Band"    INDEX 00 02:10:68FILE "04 The Billboard Match.wav" WAVE    INDEX 01 00:00:00  TRACK 05 AUDIO    TITLE "March Salutation"    PERFORMER "Army Band"    INDEX 00 02:39:02FILE "05 March Salutation.wav" WAVE    INDEX 01 00:00:00  TRACK 06 AUDIO    TITLE "The Thunderer"    PERFORMER "Army Band"    INDEX 00 02:43:63FILE "06 The Thunderer.wav" WAVE    INDEX 01 00:00:00  TRACK 07 AUDIO    TITLE "Hands Across The Sea"    PERFORMER "Army Band"    INDEX 00 02:38:57FILE "07 Hands Across The Sea.wav" WAVE    INDEX 01 00:00:00  TRACK 08 AUDIO    TITLE "Stars And Stripes Forever"    PERFORMER "Army Band"    INDEX 00 02:45:30FILE "08 Stars And Stripes Forever.wav" WAVE    INDEX 01 00:00:00  TRACK 09 AUDIO    TITLE "King Cotton"    PERFORMER "Army Band"    INDEX 00 02:32:40FILE "09 King Cotton.wav" WAVE    INDEX 01 00:00:00  TRACK 10 AUDIO    TITLE "Under The Double Eagle"    PERFORMER "Army Band"    INDEX 00 01:56:25FILE "10 Under The Double Eagle.wav" WAVE    INDEX 01 00:00:00  TRACK 11 AUDIO    TITLE "Gladiator's Farewell"    PERFORMER "Army Band"    INDEX 00 01:54:50FILE "11 Gladiator's Farewell.wav" WAVE    INDEX 01 00:00:00  TRACK 12 AUDIO    TITLE "Semper Fidelis"    PERFORMER "Army Band"    INDEX 00 03:09:15FILE "12 Semper Fidelis.wav" WAVE    INDEX 01 00:00:00  TRACK 13 AUDIO    TITLE "Old Comrades"    PERFORMER "Army Band"    INDEX 00 03:40:63FILE "13 Old Comrades.wav" WAVE    INDEX 01 00:00:00  TRACK 14 AUDIO    TITLE "Victory March"    PERFORMER "Army Band"    INDEX 00 04:17:57FILE "14 Victory March.wav" WAVE    INDEX 01 00:00:00  TRACK 15 AUDIO    TITLE "Pomp And Circumstance"    PERFORMER "Army Band"    INDEX 00 04:18:15FILE "15 Pomp And Circumstance.wav" WAVE    INDEX 01 00:00:00  TRACK 16 AUDIO    TITLE "U.S. Field Artillery"    PERFORMER "Army Band"    INDEX 00 05:45:28FILE "16 U.S. Field Artillery.wav" WAVE    INDEX 01 00:00:00  TRACK 17 AUDIO    TITLE "Manhattan Beach"    PERFORMER "Army Band"    INDEX 00 02:12:02FILE "17 Manhattan Beach.wav" WAVE    INDEX 01 00:00:00  TRACK 18 AUDIO    TITLE "Diplomat March"    PERFORMER "Army Band"    INDEX 00 02:11:08FILE "18 Diplomat March.wav" WAVE    INDEX 01 00:00:00

Чтобы скачать этот контент, Вам необходимо:
1. Скачать и установить торрент-клиент [клик для Windows], (для мобильного найдите на Play Маркет).
2. Кликнуть по [Скачать]


Внимание.
Если проверка ВЫ НЕ РОБОТ - не работает, значит Вы используете устаревший браузер.
Установите актуальный браузер и повторно кликните по [Скачать]
Безопасность: торрент-клиент разрешён АВ Касперского.

[asmlocator.ru].t570457.torrent 
Торрент: Зарегистрирован [ 2018-09-24 16:25 ] · F2C869E61D130028A673456C1EBF93CBA65D0BB0

Скачать .torrent

Скачать

14 KB

Статус: проверено
Скачан: 0 раз
Размер: 320 MB
terms.php
[Профиль] [ЛС]
Показать сообщения:    
Ответить на тему

Текущее время: 21-Ноя 01:54

Часовой пояс: UTC ± 0



Вы не можете начинать темы
Вы не можете отвечать на сообщения
Вы не можете редактировать свои сообщения
Вы не можете удалять свои сообщения
Вы не можете голосовать в опросах
Вы не можете прикреплять файлы к сообщениям
Вы можете скачивать файлы
Верим фактам, а не вранью Путина! Факт, что Правительство ведёт Россию к истреблению.
Так как численность населения падает, даже не смотря на приток эмигрантов!
Русская нация вымирает и вырождается, смешиваясь с эмигрантами!
Факт, что военных и граждан предприятий заставляют голосовать за партию Единая Россия и Путина
ПОД СТРАХОМ УВОЛЬНЕНИЯ!
Нам не нужно Правительство, блокирующее личную жизнь, интернет, нарушающее сохранность данных.
Все эти действия финансируются за счёт народа!