(Afro-Cuban, Son) [CD] Sierra Maestra - Rumbero Soy - 2002, FLAC (image+.cue), lossless

Ответить на тему
Статистика раздачи
Размер:  364 MB   |    Зарегистрирован:  1 год 1 месяц   |    Скачан:  0 раз

Полного источника не было: 1 день 17 часов

 
   
 
 
Автор Сообщение

star21 ®

Пол: Женский

Стаж: 3 года 11 месяцев

Сообщений: 551988

Откуда: Екатеринбург

Создавать темы 20-Сен-2018 19:30

[Цитировать]

Sierra Maestra / Rumbero Soy Жанр: Afro-Cuban, Son
Носитель: CD
Страна-производитель диска (релиза): UK
Год издания: 2002
Издатель (лейбл): Riverboat Records / World Music Network
Номер по каталогу: TUG CD
Страна исполнителя (группы): Cuba
Аудиокодек: FLAC (*.flac)
Тип рипа: image+.cue
Битрейт аудио: lossless
Продолжительность: 56:04
Источник (релизер): gssmg7
Наличие сканов в содержимом раздачи: нет
Треклист:
01. La Caminadora (5:44)
02. Sabina Gómez (4:46)
03. Junto A Un Canaveral (4:37)
04. Rumbero Soy (6:15)
05. Convergencia (3:17)
06. Semilla De Cana Brava (4:16)
07. Camino Como Chencha (3:51)
08. Llora Como Yo Lloré (3:59)
09. Macuterendey (4:48)
10. Cano Me Gusta María (4:10)
11. Carnaval En Camagüey (4:30)
12. El Cumpleanos De Emilio (5:26)

Лог создания рипа

Exact Audio Copy V1.0 beta 2 from 29. April 2011EAC extraction logfile from 17. September 2018, 20:37Sierra Maestra / Rumbero SoyUsed drive  : Optiarc DVD RW AD-5280S   Adapter: 1  ID: 1Read mode               : SecureUtilize accurate stream : YesDefeat audio cache      : YesMake use of C2 pointers : NoRead offset correction                      : 48Overread into Lead-In and Lead-Out          : NoFill up missing offset samples with silence : YesDelete leading and trailing silent blocks   : NoNull samples used in CRC calculations       : YesUsed interface                              : Installed external ASPI interfaceUsed output format              : User Defined EncoderSelected bitrate                : 128 kBit/sQuality                         : HighAdd ID3 tag                     : NoCommand line compressor         : C:\Program Files\FLAC\flac.exeAdditional command line options : -V -8 -T "Genre=%genre%" -T "Artist=%artist%" -T "Title=%title%" -T "Album=%albumtitle%" -T "Date=%year%" -T "Tracknumber=%tracknr%" -T "Comment=%comment%" %source%TOC of the extracted CD     Track |   Start  |  Length  | Start sector | End sector    ---------------------------------------------------------        1  |  0:00.00 |  5:47.64 |         0    |    26088        2  |  5:47.64 |  4:48.00 |     26089    |    47688        3  | 10:35.64 |  4:39.00 |     47689    |    68613        4  | 15:14.64 |  6:17.00 |     68614    |    96888        5  | 21:31.64 |  3:20.72 |     96889    |   111960        6  | 24:52.61 |  4:18.26 |    111961    |   131336        7  | 29:11.12 |  3:53.18 |    131337    |   148829        8  | 33:04.30 |  4:01.71 |    148830    |   166975        9  | 37:06.26 |  4:50.00 |    166976    |   188725       10  | 41:56.26 |  4:10.00 |    188726    |   207475       11  | 46:06.26 |  4:30.00 |    207476    |   227725       12  | 50:36.26 |  5:28.00 |    227726    |   252325Range status and errorsSelected range     Filename C:\Sierra Maestra (2002) - Rumbero Soy\Sierra Maestra (2002) - Rumbero Soy.wav     Peak level 100.0 %     Extraction speed 7.8 X     Range quality 100.0 %     Test CRC 84671DA3     Copy CRC 84671DA3     Copy OKNo errors occurredAccurateRip summaryTrack  1  accurately ripped (confidence 14)  [B153D0DD]  (AR v2)Track  2  accurately ripped (confidence 14)  [1F52DEAB]  (AR v2)Track  3  accurately ripped (confidence 14)  [30499EF1]  (AR v2)Track  4  accurately ripped (confidence 14)  [544E01EF]  (AR v2)Track  5  accurately ripped (confidence 14)  [F0CBDD21]  (AR v2)Track  6  accurately ripped (confidence 14)  [88288695]  (AR v2)Track  7  accurately ripped (confidence 14)  [E2031055]  (AR v2)Track  8  accurately ripped (confidence 14)  [052244F2]  (AR v2)Track  9  accurately ripped (confidence 14)  [D2C3A0E5]  (AR v2)Track 10  accurately ripped (confidence 14)  [4F52B3F8]  (AR v2)Track 11  accurately ripped (confidence 14)  [F68BDE95]  (AR v2)Track 12  accurately ripped (confidence 14)  [EF5E8B36]  (AR v2)All tracks accurately rippedEnd of status report==== Log checksum D45BED953A93447BD0923764952CAD9A9BF4033DF624876F298C8E03D16F0F24 ====

Содержание индексной карты (.CUE)

REM GENRE CubanREM DATE 2002REM DISCID BE0D240CREM COMMENT "ExactAudioCopy v1.0b2"PERFORMER "Sierra Maestra"TITLE "Rumbero Soy"FILE "Sierra Maestra (2002) - Rumbero Soy.flac" WAVE  TRACK 01 AUDIO    TITLE "La Caminadora"    PERFORMER "Sierra Maestra"    INDEX 01 00:00:00  TRACK 02 AUDIO    TITLE "Sabina Gomez"    PERFORMER "Sierra Maestra"    INDEX 00 05:44:64    INDEX 01 05:47:64  TRACK 03 AUDIO    TITLE "Junto A Un Canaveral"    PERFORMER "Sierra Maestra"    INDEX 00 10:33:64    INDEX 01 10:35:64  TRACK 04 AUDIO    TITLE "Rumbero Soy"    PERFORMER "Sierra Maestra"    INDEX 00 15:12:64    INDEX 01 15:14:64  TRACK 05 AUDIO    TITLE "Convergencia"    PERFORMER "Sierra Maestra"    INDEX 00 21:29:64    INDEX 01 21:31:64  TRACK 06 AUDIO    TITLE "Semilla De Cana Brava"    PERFORMER "Sierra Maestra"    INDEX 00 24:49:31    INDEX 01 24:52:61  TRACK 07 AUDIO    TITLE "Camina Como Chencha"    PERFORMER "Sierra Maestra"    INDEX 00 29:09:12    INDEX 01 29:11:12  TRACK 08 AUDIO    TITLE "Llora Como Yo Llore"    PERFORMER "Sierra Maestra"    INDEX 00 33:02:30    INDEX 01 33:04:30  TRACK 09 AUDIO    TITLE "Macuterendey"    PERFORMER "Sierra Maestra"    INDEX 00 37:04:26    INDEX 01 37:06:26  TRACK 10 AUDIO    TITLE "Como Me Gusta Maria"    PERFORMER "Sierra Maestra"    INDEX 00 41:54:26    INDEX 01 41:56:26  TRACK 11 AUDIO    TITLE "Carnaval En Camaguey"    PERFORMER "Sierra Maestra"    INDEX 01 46:06:26  TRACK 12 AUDIO    TITLE "El Cumpleanos De Emilio"    PERFORMER "Sierra Maestra"    INDEX 01 50:36:26

Об исполнителе (группе)

Sierra Maestra are a Cuban band started in 1976. They sought to revive 1920's classic son, which came from the mountain range on the east of Cuba, after which the band was named. Their members included Juan de Marcos Gonzalez—before he left to create the Afro-Cuban All Stars in 1996—José Antonio "Maceo" Rodríguez, and Jesús Alemañy, who would go on to form the band ¡Cubanismo!, also in 1996. Sierra Maestra performed at the Glastonbury Festival (UK) in 2008.
https://worldmusiccentral.org/2017/04/27/artist-profiles-sierra-maestra/

Об альбоме (сборнике)

Rumbero Soy is the sound of a band playing as if they're having the time of their lives. The joy of the French sessions for this album comes across in every note, where the passion is almost tactile. For a band with such a long reputation (they were the spawning ground for many Cuban musicians, including Cubanismo's Jesus Alemany), they sound positively youthful and energized on a tune like "Sabina Goméz," while the title track, with its electric guitar and fanfare trumpets, positively rocks -- one of the most powerful tracks to come out of Cuba in recent years. But while it's hardly musically typical of the record, its spirit certainly is, like the aural smile that's "Macuterenday," with the trumpet soaring high over the melody, while the rhythm stays powerful, but subtle, in the background. The singing is consistently superb -- but then again, everything is, with a vibrancy that makes it addictive. Add to that some impressively strong material, such as the wonderful, pulsing "Covo Me Gusta Maria," and you've got a winner that deserves a massive audience. ~ chris nickson, allmusic.comRumbero Soy is the electrifying new album from Sierra Maestra that pushes back the boundaries of traditional son, in an unbridled celebration of their twenty-five years of success. Recorded in Bordeaux and Havana with new younger members fresh from the Cuban talent factory, the legendary soneros present groundbreaking tracks featuring an innovative sound, new songs and very special guests Ibrahim Ferrer, Omara Portuondo and Marc Ribot. ~ worldmusic.net

Состав

José Antonio 'Maceo Rodríguez' - lead vocal, guitar
Luis Barzaga - lead vocal, clave
Alberto Virgillio Valdés - lead vocal, maracas
Emilio Ramos - tres
Eduardo ‘Ñiquito’ Rico - percussion
Carlos Puisseaux - güiro
Oslén Ceballo Brien - trumpet
Eduardo Himely - bass, acoustic guitar, percussion, musical director
Alejandro Suárez - percussion, general directorGuests:
Omara Portuondo, Ibrahim Ferrer, Marc Ribot, Chris Birkett, Erdwin Vichot Blanco, Hector Joseph Anderson, Wilfredo Naranjo, Pavel Rodríguez-Jimenez

Чтобы скачать этот контент, Вам необходимо:
1. Скачать и установить торрент-клиент [клик для Windows], (для мобильного найдите на Play Маркет).
2. Кликнуть по [Скачать]


Внимание.
Если проверка ВЫ НЕ РОБОТ - не работает, значит Вы используете устаревший браузер.
Установите актуальный браузер и повторно кликните по [Скачать]
Безопасность: торрент-клиент разрешён АВ Касперского.

[asmlocator.ru].t569309.torrent 
Торрент: Зарегистрирован [ 2018-09-20 19:30 ] · 5A2FEAFC3047639CCF84088757D77312F4ABC89D

Скачать .torrent

Скачать

15 KB

Статус: проверено
Скачан: 0 раз
Размер: 364 MB
terms.php
[Профиль] [ЛС]
Показать сообщения:    
Ответить на тему

Текущее время: 21-Окт 14:10

Часовой пояс: UTC ± 0



Вы не можете начинать темы
Вы не можете отвечать на сообщения
Вы не можете редактировать свои сообщения
Вы не можете удалять свои сообщения
Вы не можете голосовать в опросах
Вы не можете прикреплять файлы к сообщениям
Вы можете скачивать файлы
Верим фактам, а не вранью Путина! Факт, что Правительство ведёт Россию к истреблению.
Так как численность населения падает, даже не смотря на приток эмигрантов!
Русская нация вымирает и вырождается, смешиваясь с эмигрантами!
Факт, что военных и граждан предприятий заставляют голосовать за партию Единая Россия и Путина
ПОД СТРАХОМ УВОЛЬНЕНИЯ!
Нам не нужно Правительство, блокирующее личную жизнь, интернет, нарушающее сохранность данных.
Все эти действия финансируются за счёт народа!