Мост в будущее (Алексей Чукарев) [2018, Россия, Документальный, HDTVRip]

Ответить на тему
Статистика раздачи
Размер:  735 MB   |    Зарегистрирован:  1 год 6 месяцев   |    Скачан:  0 раз

Полного источника не было: Никогда

 
   
 
 
Автор Сообщение

star21 ®

Пол: Женский

Стаж: 4 года 2 месяца

Сообщений: 551946

Откуда: Екатеринбург

Создавать темы 26-Июн-2018 16:40

[Цитировать]

Мост в будущее Страна: Россия
Студия: Телеканал "Россия", ВГТРК, Единая Медиа Группа
Жанр: Документальный
Год выпуска: 2018
Продолжительность: 00:42:32
Режиссёр: Алексей ЧукаревОписание: Крымский мост – мечта, которая стала реальностью. За этой стройкой следил весь мир, не веря особо в успех России. Штормовые ветры, сейсмоактивность, размывание грунтов – на протяжении столетий считалось, что в этом месте построить мост нельзя. Нашим мостостроителям удалось невозможное. Этот мост уже окрестили вторым БАМом и стройкой века. Кубань и Крым соединен. В рекордно короткие сроки, с новейшими технологиями, с захватывающей "Морской операцией", которую проводили на территории России впервые. Съемочная группа снимала эту увлекательную историю в течение нескольких лет. Сегодня у зрителей телеканала "Россия" есть уникальная возможность увидеть, как, преодолевая все мыслимые сложности, поэтапно создавался самый длинный мост в Европе – от черновых вариантов и творческих усилий его создателей до окончательного победного завершения.Доп. информация:
Автор релиза -
Источник для рипа - HDTV 1080i TS - моя запись с канала Россия-1 HDСэмпл: https://yadi.sk/i/AfgGmbw93XnamXРекламы нет!Качество видео: HDTVRip
Формат видео: AVIВидео: XviD, 720x400 (16:9), 25.000 fps, 2214 kbps, 0.308 bit/pixel
Аудио: Русский AC3, 48000 Гц, 2ch, 192 kbps

MediaInfo

ОбщееПолное имя                               : D:\Мост.в.будущее.2018.HDTVRip-ylnian.aviФормат                                   : AVIФормат/Информация                        : Audio Video InterleaveРазмер файла                             : 735 МбайтПродолжительность                        : 42 м. 31 с.Общий поток                              : 2416 Кбит/секПрограмма кодирования                    : VirtualDubMod 1.5.10.3 | www.virtualdub-fr.org || (build 2550/release)Библиотека кодирования                   : VirtualDubMod build 2550/releaseВидеоИдентификатор                            : 0Формат                                   : MPEG-4 VisualПрофиль формата                          : Advanced Simple@L5Настройки формата                        : BVOP1Параметр BVOP формата                    : 1Параметр QPel формата                    : НетПараметр GMC формата                     : Без точки переходаПараметр матрицы формата                 : Default (MPEG)Идентификатор кодека                     : XVIDИдентификатор кодека/Подсказка           : XviDПродолжительность                        : 42 м. 31 с.Битрейт                                  : 2214 Кбит/секШирина                                   : 720 пикселейВысота                                   : 400 пикселейСоотношение сторон                       : 16:9Частота кадров                           : 25,000 кадров/секЦветовое пространство                    : YUVСубдискретизация насыщенности            : 4:2:0Битовая глубина                          : 8 битТип развёртки                            : ПрогрессивнаяМетод сжатия                             : С потерямиБит/(Пиксели*Кадры)                      : 0.308Размер потока                            : 674 Мбайт (92%)Библиотека кодирования                   : XviD 67АудиоИдентификатор                            : 1Формат                                   : AC-3Формат/Информация                        : Audio Coding 3Идентификатор кодека                     : 2000Продолжительность                        : 42 м. 31 с.Вид битрейта                             : ПостоянныйБитрейт                                  : 192 Кбит/секКаналы                                   : 2 каналаРасположение каналов                     : Front: L RЧастота                                  : 48,0 КГцЧастота кадров                           : 31,250 кадров/сек (1536 SPF)Битовая глубина                          : 16 битМетод сжатия                             : С потерямиРазмер потока                            : 58,4 Мбайт (8%)Выравнивание                             : Разделение по промежуткамПродолжительность промежутка             : 40  мс. (1,00 видеокадр)Время предзагрузки промежутка            : 500  мс.ServiceKind/String                       : Complete Main

Чтобы скачать этот контент, Вам необходимо:
1. Скачать и установить торрент-клиент [клик для Windows], (для мобильного найдите на Play Маркет).
2. Кликнуть по [Скачать]


Внимание.
Если проверка ВЫ НЕ РОБОТ - не работает, значит Вы используете устаревший браузер.
Установите актуальный браузер и повторно кликните по [Скачать]
Безопасность: торрент-клиент разрешён АВ Касперского.

[asmlocator.ru].t544332.torrent 
Торрент: Зарегистрирован [ 2018-06-26 16:40 ] · 5D354E750195D4587B41D19460898AE36EC3BADC

Скачать .torrent

Скачать

15 KB

Статус: проверено
Скачан: 0 раз
Размер: 735 MB
terms.php
[Профиль] [ЛС]
Показать сообщения:    
Ответить на тему

Текущее время: 24-Янв 15:31

Часовой пояс: UTC ± 0



Вы не можете начинать темы
Вы не можете отвечать на сообщения
Вы не можете редактировать свои сообщения
Вы не можете удалять свои сообщения
Вы не можете голосовать в опросах
Вы не можете прикреплять файлы к сообщениям
Вы можете скачивать файлы
Верим фактам, а не вранью Путина! Факт, что Правительство ведёт Россию к истреблению.
Так как численность населения падает, даже не смотря на приток эмигрантов!
Русская нация вымирает и вырождается, смешиваясь с эмигрантами!
Факт, что военных и граждан предприятий заставляют голосовать за партию Единая Россия и Путина
ПОД СТРАХОМ УВОЛЬНЕНИЯ!
Нам не нужно Правительство, блокирующее личную жизнь, интернет, нарушающее сохранность данных.
Все эти действия финансируются за счёт народа!