Большой Кремлевский дворец (Сергей Дудкин) [2010, культуру и искусство, SATRip]

Reply to topic
DL-List and Torrent activity
Size:  302 MB   |    Registered:  1 year 1 month   |    Completed:  0 times

Seeder not seen: Never

 
   
 
 
Author Message

star21 ®

Gender: Female

Longevity: 3 years 9 months

Posts: 551989

Location: Екатеринбург

Post 23-Jun-2018 22:56

[Quote]

Большой Кремлевский дворец Дата/Год выпуска: 2010
Страна: Россия
Жанр: культуру и искусство
Продолжительность: 00:23:45
Перевод: Не требуется
Русские субтитры: нет
Оригинальная аудиодорожка: русский
Режиссер: Сергей Дудкин
Телеканал: RTG TVОписание: Большой Кремлевский дворец был возведен по указу императора Николая Первого как дворец-памятник российской истории и славы русского воинства. Главным фасадом он выходит на Москва-реку. Больше десяти лет с 1838 по 1849 год строил его архитектор Константин Тон. «Надежным и соответсвенным первопросетольной столице» должно было стать это грандиозное сооружение. Каждый из пяти парадных залов дворца - Георгиевский, Андреевский, Александровский, Владимирский и Екатерининский - посвящен одной из высших военных наград России и оформлен в стиле соответствующего ордена. В южной части Большого Кремлевского дворца - покои, в которых располагались прибывшие на коронацию в Москву из Санкт-Петербурга, куда Петр Первый в 1712 году перенес столицу России, император и императрица. Эта жилая часть называется «собственная половина». Комнаты анфилады шесть основных и две проходных оформлены в стилях разных эпох. Большой Кремлевский Дворец - один из уникальных памятников архитектуры и истории Московского Кремля.качество: SATRip
формат: AVI
Видео: MPEG4, XviD, 640x480 (4:3), 25.000 fps, 1 646 Kbps (0.214 bit/pixel)
Аудио: MP3, 48.0 KHz, 2 ch, 113 Kbps, VBR

MediaInfo

GeneralComplete name                            : C:\Users\User\Downloads\Большой Кремлевский дворец.aviFormat                                   : AVIFormat/Info                              : Audio Video InterleaveFile size                                : 302 MiBDuration                                 : 23mn 49sOverall bit rate mode                    : VariableOverall bit rate                         : 1 772 KbpsVideoID                                       : 0Format                                   : MPEG-4 VisualFormat profile                           : Advanced Simple@L5Format settings, BVOP                    : 2Format settings, QPel                    : NoFormat settings, GMC                     : No warppointsFormat settings, Matrix                  : Default (H.263)Codec ID                                 : XVIDCodec ID/Hint                            : XviDDuration                                 : 23mn 49sBit rate                                 : 1 646 KbpsWidth                                    : 640 pixelsHeight                                   : 480 pixelsDisplay aspect ratio                     : 4:3Frame rate                               : 25.000 fpsColor space                              : YUVChroma subsampling                       : 4:2:0Bit depth                                : 8 bitsScan type                                : ProgressiveCompression mode                         : LossyBits/(Pixel*Frame)                       : 0.214Stream size                              : 281 MiB (93%)Writing library                          : XviD 1.2.1 (UTC 2008-12-04)AudioID                                       : 1Format                                   : MPEG AudioFormat version                           : Version 1Format profile                           : Layer 3Mode                                     : Joint stereoCodec ID                                 : 55Codec ID/Hint                            : MP3Duration                                 : 23mn 49sBit rate mode                            : VariableBit rate                                 : 113 KbpsNominal bit rate                         : 128 KbpsChannel(s)                               : 2 channelsSampling rate                            : 48.0 KHzCompression mode                         : LossyStream size                              : 19.3 MiB (6%)Alignment                                : Aligned on interleavesInterleave, duration                     : 24 ms (0.60 video frame)Interleave, preload duration             : 553 msWriting library                          : LAME3.98rEncoding settings                        : -m j -V 4 -q 2 -lowpass 17 --abr 128

Скриншоты


To download the content you need:
1. Download and install torrent client [for Windows] or for mobile system
2. Click on [Download]
Attention.
If the test YOU are NOT a ROBOT - does not work, then You are using an outdated browser.
Install the current browser and click on [Download]
Security: torrent client is allowed by Kaspersky.

[asmlocator.ru].t543685.torrent 
Torrent: Registered [ 2018-06-23 22:55 ] · AD5B8FFC3E1A14D3A8313405D74AEE31FB2AE0D0

Download .torrent

Download

12 KB

Status: checked
Completed: 0 times
Size: 302 MB
terms.php
[Profile] [PM]
Display posts:    
Reply to topic

Current time is: 23-Aug 16:46

All times are UTC ± 0



You cannot post new topics in this forum
You cannot reply to topics in this forum
You cannot edit your posts in this forum
You cannot delete your posts in this forum
You cannot vote in polls in this forum
You cannot attach files in this forum
You can download files in this forum