Арсенал России (4 серии из 4) (Сергей Кравчук) [2010, Документальный, оружие, история, SATRip]

Ответить на тему
Статистика раздачи
Размер:  1,19 GB   |    Зарегистрирован:  1 год 2 месяца   |    Скачан:  0 раз

Полного источника не было: Никогда

 
   
 
 
Автор Сообщение

star21 ®

Пол: Женский

Стаж: 3 года 10 месяцев

Сообщений: 551989

Откуда: Екатеринбург

Создавать темы 23-Июн-2018 22:55

[Цитировать]

Арсенал России (4 серии из 4) / Дата/Год выпуска: 2010
Страна: Россия, ООО «Феникс-Тверь»
Жанр: Документальный, оружие, история
Продолжительность: 4 х ~ 00:22:00
Перевод: Не требуется
Режиссер: Сергей КравчукТелеканал: ОружиеОписание: Сериал о советском и российском стрелковом оружии. В каждом выпуске рассказана история создания того или иного образца оружия и приведены любопытные факты. «Арсенал России» – это интересная и познавательная программа, проиллюстрированная кадрами исторической хроники и рассказами экспертов.Доп. информация: Авторство релиза - alf62
качество: SATRip
формат: AVI
Видео: 720x528 (1.36:1), 25 fps, XviD build 73 ~1799 kbps avg, 0.19 bit/pixel
Аудио: 48 kHz, AC3 Dolby Digital, 2/0 (L,R) ch, ~192.00 kbps avg

Список выпусков/серий

1. Пистолет Макарова (ПМ)
9-мм пистоле́т Мака́рова (ПМ) - самозарядный пистолет, разработанный советским конструктором Николаем Фёдоровичем Макаровым в 1948 году. ПМ с 1951 года служит личным оружием в советских и постсоветских вооружённых силах и правоохранительных органах.2. Автоматический пистолет Стечкина (АПС)
9-мм автоматический пистолет Стечкина (АПС) - пистолет, разработанный в конце 1940-х - начале 1950-х годов конструктором И. Я. Стечкиным и принятый на вооружение Вооружённых Сил СССР в 1951 году, одновременно с пистолетом Макарова. АПС предназначен для вооружения офицеров, принимающих непосредственное участие в боевых действиях, а также для солдат и сержантов некоторых специальных подразделений.3. Снайперская винтовка Драгунова (СВД)
7,62-мм снайперская винтовка Драгунова (СВД) - снайперская винтовка, разработанная в 1958-1963 годах группой конструкторов под руководством Евгения Драгунова. Винтовка является самозарядным оружием. Автоматика винтовки основана на использовании энергии пороховых газов, отводимых из канала ствола к газовому поршню.4. Винтовка Мосина
7,62-мм (3-линейная) винтовка образца 1891 года (винтовка Мосина, трёхлинейка) - магазинная винтовка, принятая на вооружение Российской Императорской армии в 1891 году. Активно использовалась в период с 1891 по конец Великой Отечественной войны, в этот период многократно модернизировалась. На основе винтовки обр. 1891 года и её модификаций был создан целый ряд образцов спортивного и охотничьего оружия, как нарезного, так и гладкоствольного.

MediaInfo

ОбщееПолное имя                               : E:\Запись\Арсенал России\Арсенал.России.2010.XviD.SATRip.alf62\1.ПМ.2010.XviD.SATRip.alf62.aviФормат                                   : AVIФормат/Информация                        : Audio Video InterleaveРазмер файла                             : 287 МбайтПродолжительность                        : 20 м.Общий поток                              : 2002 Кбит/секПрограмма кодирования                    : VirtualDubMod 1.5.10.3 | www.virtualdub-fr.org || (build 2550/release)Библиотека кодирования                   : VirtualDubMod build 2550/releaseВидеоИдентификатор                            : 0Формат                                   : MPEG-4 VisualПрофиль формата                          : Advanced Simple@L5Параметр BVOP формата                    : 2Параметр QPel формата                    : НетПараметр GMC формата                     : Без точки переходаПараметр матрицы формата                 : Default (MPEG)Идентификатор кодека                     : XVIDИдентификатор кодека/Подсказка           : XviDПродолжительность                        : 20 м.Битрейт                                  : 1800 Кбит/секШирина                                   : 720 пикселейВысота                                   : 528 пикселейСоотношение сторон                       : 4:3Частота кадров                           : 25,000 кадров/секЦветовое пространство                    : YUVСубдискретизация насыщенности            : 4:2:0Битовая глубина                          : 8 битТип развёртки                            : ПрогрессивнаяМетод сжатия                             : С потерямиБит/(Пиксели*Кадры)                      : 0.189Размер потока                            : 258 Мбайт (90%)Библиотека кодирования                   : XviD 73АудиоИдентификатор                            : 1Формат                                   : AC-3Формат/Информация                        : Audio Coding 3Расширение режима                        : CM (complete main)Параметр Endianness формата              : BigИдентификатор кодека                     : 2000Продолжительность                        : 20 м.Вид битрейта                             : ПостоянныйБитрейт                                  : 192 Кбит/секКаналы                                   : 2 каналаРасположение каналов                     : Front: L RЧастота                                  : 48,0 КГцБитовая глубина                          : 16 битМетод сжатия                             : С потерямиРазмер потока                            : 27,6 Мбайт (10%)Выравнивание                             : Разделение по промежуткамПродолжительность промежутка             : 40  мс. (1,00 видеокадр)Время предзагрузки промежутка            : 500  мс.

Чтобы скачать этот контент, Вам необходимо:
1. Скачать и установить торрент-клиент [клик для Windows], (для мобильного найдите на Play Маркет).
2. Кликнуть по [Скачать]


Внимание.
Если проверка ВЫ НЕ РОБОТ - не работает, значит Вы используете устаревший браузер.
Установите актуальный браузер и повторно кликните по [Скачать]
Безопасность: торрент-клиент разрешён АВ Касперского.

[asmlocator.ru].t543673.torrent 
Торрент: Зарегистрирован [ 2018-06-23 22:55 ] · AD0571745867DD84BF95021FDEF8B8C8E11CDD7E

Скачать .torrent

Скачать

13 KB

Статус: проверено
Скачан: 0 раз
Размер: 1,19 GB
terms.php
[Профиль] [ЛС]
Показать сообщения:    
Ответить на тему

Текущее время: 18-Сен 18:48

Часовой пояс: UTC ± 0



Вы не можете начинать темы
Вы не можете отвечать на сообщения
Вы не можете редактировать свои сообщения
Вы не можете удалять свои сообщения
Вы не можете голосовать в опросах
Вы не можете прикреплять файлы к сообщениям
Вы можете скачивать файлы
Верим фактам, а не вранью Путина! Факт, что Правительство ведёт Россию к истреблению.
Так как численность населения падает, даже не смотря на приток эмигрантов!
Русская нация вымирает и вырождается, смешиваясь с эмигрантами!
Факт, что военных и граждан предприятий заставляют голосовать за партию Единая Россия и Путина
ПОД СТРАХОМ УВОЛЬНЕНИЯ!
Нам не нужно Правительство, блокирующее личную жизнь, интернет, нарушающее сохранность данных.
Все эти действия финансируются за счёт народа!