(Instrumental Rock) [CD] The Shadows - Themes & Dreams (1991) FLAC (image+.cue), lossless

Reply to topic
DL-List and Torrent activity
Size:  407 MB   |    Registered:  1 year 7 months   |    Completed:  0 times

Seeder not seen: 1 year 3 months

 
   
 
 
Author Message

star21 ®

Gender: Female

Longevity: 3 years 8 months

Posts: 552042

Location: Екатеринбург

Post 27-Nov-2017 12:55

[Quote]

The Shadows - Themes & Dreams Жанр: Instrumental Rock
Носитель: CD
Страна-производитель диска (релиза): UK
Год издания: 1991
Издатель (лейбл): Polydor
Номер по каталогу: 511 374-2
Страна исполнителя (группы): UK
Аудиокодек: FLAC (*.flac)
Тип рипа: image+.cue
Битрейт аудио: lossless
Продолжительность: 01:04:48
Источник (релизер): свой CD
Наличие сканов в содержимом раздачи: даТреклист:01.Crocket's Theme (From 'Miami Vice')
02.Up Where We Belong (From 'An Officer And A Gentleman')
03.Take My Breath Away (From 'Top Gun')
04.Theme From 'The Deerhunter'
05.Walking In The Air (From 'The Snowman')
06.If You Leave Me Now
07.One Day I'll Fly Away
08.Africa
09.Every Breath You Take
10.Memory (From 'Cats')
11.Night In White Satin
12.Candle In The Wind
13.You Win Again
14.Sailing
15.Just The Way YouAre
16.Moonlight Shadow

Лог создания рипа

Exact Audio Copy V1.3 from 2. September 2016Отчёт EAC об извлечении, выполненном 2. сентября 2017, 21:31The Shadows / Themes and DreamsДисковод: HL-DT-STDVDRAM GUE0N   Adapter: 1  ID: 0Режим чтения                 : ДостоверностьИспользование точного потока : ДаОтключение кэша аудио        : ДаИспользование указателей C2  : НетКоррекция смещения при чтении                     : 102Способность читать области Lead-in и Lead-out     : НетЗаполнение пропущенных сэмплов тишиной            : ДаУдаление блоков с тишиной в начале и конце        : НетПри вычислениях CRC использовались нулевые сэмплы : ДаИнтерфейс                                         : Установленный внешний ASPI-интерфейсВыходной формат          : Пользовательский кодировщикВыбранный битрейт        : 768 kBit/sКачество                 : ВысокийДобавление ID3-тега      : НетУтилита сжатия           : C:\Program Files (x86)\Exact Audio Copy\Flac\flac.exeДополнительные параметры :  -8 -V -T "TITLE=%title%" -T "ARTIST=%artist%" -T "ALBUMARTIST=%albumartist%" -T "ALBUM=%albumtitle%" -T "DATE=%year%" -T "TRACKNUMBER=%tracknr%" -T "TRACKTOTAL=%numtracks%" -T "GENRE=%genre%" -T "COMMENT=%comment%" -T "PERFORMER=%albuminterpret%" -T "COMPOSER=%composer%" %source% -o %dest%TOC извлечённого CD     Трек |   Старт  | Длительность | Начальный сектор | Конечный сектор    ---------------------------------------------------------------------       1  |  0:00.40 |    3:45.60   |          40      |      16974       2  |  3:46.25 |    4:22.03   |       16975      |      36627       3  |  8:08.28 |    4:25.45   |       36628      |      56547       4  | 12:33.73 |    3:26.10   |       56548      |      72007       5  | 16:00.08 |    3:53.60   |       72008      |      89542       6  | 19:53.68 |    3:59.57   |       89543      |     107524       7  | 23:53.50 |    4:13.10   |      107525      |     126509       8  | 28:06.60 |    4:39.50   |      126510      |     147484       9  | 32:46.35 |    4:10.55   |      147485      |     166289      10  | 36:57.15 |    3:54.05   |      166290      |     183844      11  | 40:51.20 |    4:26.10   |      183845      |     203804      12  | 45:17.30 |    3:49.23   |      203805      |     221002      13  | 49:06.53 |    3:51.05   |      221003      |     238332      14  | 52:57.58 |    4:49.02   |      238333      |     260009      15  | 57:46.60 |    3:22.25   |      260010      |     275184      16  | 61:09.10 |    3:39.48   |      275185      |     291657Характеристики диапазона извлечения и сообщения об ошибкахВыбранный диапазон     Пиковый уровень 94.9 %     Скорость извлечения 4.3 X     Качество диапазона 100.0 %     CRC теста 36052C5B     CRC копии 36052C5B     Копирование... OKОшибок не произошлоКонец отчёта==== Контрольная сумма отчёта 8242E8AAA59D8F0866FB96580BF71799102DB0ADE9941E55866B0D4E3C986FBE ====

Содержание индексной карты (.CUE)

REM GENRE RockREM DATE 1991REM DISCID 0A0F3010REM COMMENT "ExactAudioCopy v1.3"PERFORMER "The Shadows"TITLE "Themes and Dreams"REM COMPOSER ""FILE "The Shadows - Themes and Dreams.flac" WAVE  TRACK 01 AUDIO    TITLE "Crockett's Theme"    PERFORMER "The Shadows"    REM COMPOSER ""    INDEX 00 00:00:00    INDEX 01 00:00:40  TRACK 02 AUDIO    TITLE "Up To Where We Belong"    PERFORMER "The Shadows"    REM COMPOSER ""    INDEX 00 03:46:22    INDEX 01 03:46:25  TRACK 03 AUDIO    TITLE "Take My Breath Away"    PERFORMER "The Shadows"    REM COMPOSER ""    INDEX 00 08:08:22    INDEX 01 08:08:28  TRACK 04 AUDIO    TITLE "Theme from 'The Deerhunter'"    PERFORMER "The Shadows"    REM COMPOSER ""    INDEX 00 12:33:67    INDEX 01 12:33:73  TRACK 05 AUDIO    TITLE "Walking In The Air"    PERFORMER "The Shadows"    REM COMPOSER ""    INDEX 00 16:00:04    INDEX 01 16:00:08  TRACK 06 AUDIO    TITLE "If You Leave Me Now"    PERFORMER "The Shadows"    REM COMPOSER ""    INDEX 00 19:53:64    INDEX 01 19:53:68  TRACK 07 AUDIO    TITLE "One Day I'll Fly Away"    PERFORMER "The Shadows"    REM COMPOSER ""    INDEX 00 23:53:47    INDEX 01 23:53:50  TRACK 08 AUDIO    TITLE "Africa"    PERFORMER "The Shadows"    REM COMPOSER ""    INDEX 00 28:06:57    INDEX 01 28:06:60  TRACK 09 AUDIO    TITLE "Every Breath You Take"    PERFORMER "The Shadows"    REM COMPOSER ""    INDEX 00 32:46:32    INDEX 01 32:46:35  TRACK 10 AUDIO    TITLE "Memory"    PERFORMER "The Shadows"    REM COMPOSER ""    INDEX 00 36:57:12    INDEX 01 36:57:15  TRACK 11 AUDIO    TITLE "Nights in White Satin"    PERFORMER "The Shadows"    REM COMPOSER ""    INDEX 00 40:51:17    INDEX 01 40:51:20  TRACK 12 AUDIO    TITLE "Candle in the Wind"    PERFORMER "The Shadows"    REM COMPOSER ""    INDEX 00 45:17:27    INDEX 01 45:17:30  TRACK 13 AUDIO    TITLE "You Win Again"    PERFORMER "The Shadows"    REM COMPOSER ""    INDEX 00 49:06:49    INDEX 01 49:06:53  TRACK 14 AUDIO    TITLE "Sailing"    PERFORMER "The Shadows"    REM COMPOSER ""    INDEX 00 52:57:54    INDEX 01 52:57:58  TRACK 15 AUDIO    TITLE "Just The Way You Are"    PERFORMER "The Shadows"    REM COMPOSER ""    INDEX 00 57:46:54    INDEX 01 57:46:60  TRACK 16 AUDIO    TITLE "Moonlight Shadow"    PERFORMER "The Shadows"    REM COMPOSER ""    INDEX 00 61:09:07    INDEX 01 61:09:10

Лог проверки качества

-----------------------DON'T MODIFY THIS FILE-----------------------PERFORMER: auCDtect Task Manager, ver. 1.6.0 RC1 build 1.6.0.1Copyright (c) 2008-2010 y-soft. All rights reservedhttp://y-soft.orgANALYZER: auCDtect: CD records authenticity detector, version 0.8.2Copyright (c) 2004 Oleg Berngardt. All rights reserved.Copyright (c) 2004 Alexander Djourik. All rights reserved.FILE: The Shadows - Themes and Dreams.flac  Size: 426790492 Hash: 1A1FBA3116F24C704E6EB288A2C08F79 Accuracy: -m0  Conclusion: CDDA 100%  Signature: 75919DA191C264492D141E4E37785414E0B7A9DB

Скриншот спектра частот


To download the content you need:
1. Download and install torrent client [for Windows] or for mobile system
2. Click on [Download]
Attention.
If the test YOU are NOT a ROBOT - does not work, then You are using an outdated browser.
Install the current browser and click on [Download]
Security: torrent client is allowed by Kaspersky.

[asmlocator.ru].t450991.torrent 
Torrent: Registered [ 2017-11-27 12:55 ] · A3C82BDB334BD6225CB12B352C3E938B9D4420C4

Download .torrent

Download

17 KB

Status: checked
Completed: 0 times
Size: 407 MB
terms.php
[Profile] [PM]
Display posts:    
Reply to topic

Current time is: 18-Jul 05:45

All times are UTC ± 0



You cannot post new topics in this forum
You cannot reply to topics in this forum
You cannot edit your posts in this forum
You cannot delete your posts in this forum
You cannot vote in polls in this forum
You cannot attach files in this forum
You can download files in this forum