Алуника Добровольская - Мужчина класса LUX. Руководство к действию [2016, отношения, любовь, CAMRip, RUS] (Видеоурок)

Ответить на тему
Статистика раздачи
Размер:  3.39 GB   |    Зарегистрирован:  2 года 6 месяцев   |    Скачан:  1 раз

Полного источника не было: 7 месяцев 14 дней

 
   
 
 
Автор Сообщение

star21 ®

Пол: Женский

Стаж: 4 года 6 месяцев

Сообщений: 551945

Откуда: Екатеринбург

Создавать темы 05-Ноя-2017 07:50

[Цитировать]

Алуника Добровольская - Мужчина класса LUX.
Руководство к действию
Страна: Россия
Тематика: отношения, любовь
Тип раздаваемого материала: Видеоурок
Год выпуска: 2015Язык: Русский
Перевод: Не требуетсяОписание: Алуника Добровольская — трансформационный коуч — называет себя консультантом умных и красивых женщин. Алуника разработала собственную систему психологической помощи людям и в течение многих лет приезжает с тренингами в разные страны. Среди тем, которые мастерски поднимает Алуника, — личные отношения, целеполагание, успешное развитие бизнеса, архетипное восприятие действительности, защита от «токсичных» взаимоотношений.Пройдя программу, вы научитесь:
  • быстро отличать ресурсных мужчин от всех остальных мужчин и четко понимать, кто перед вами и зачем?
    • легко и просто с ними начинать и продолжать общение
    • находить уникальные "ключики", которые открывают "замочек" их LUX сердца?
    • влюблять и(или) влюбляться!
    • помогать своему избраннику становиться Мужчиной Класса LUX и при этом сохранять все свои лучшие качества
      Вам обязательно надо пройти этот видео тренинг:
    • если вы - свободная девушка в поиске и хотите видеть среди своих мужчин и мужчин класса LUX.
    • если вы уже встречаетесь с таким, но хотите привязать его к себе покрепче
    • если вы уже замужем и хотите научиться вдохновлять своего мужчину получать больше ресурсов!
      Пройдя программу, вы получите:
    • абсолютно новую и шокирующую информацию, с помощью которой сможете гораздо быстрее создавать отношения с лучшими мужчинами
    • уверенность в своих силах
    • новые пошаговые стратегии влюбления, удержания и создания крепких отношений
      К сожалению, качеством нас не балуют, курс предоставлен именно так, как куплен у автора.

      Часть 1

      Продолжительность: 01:21:19
      Качество: CAMRip
      Формат: MP4
      Видео кодек: H.264
      Аудио кодек: AAC
      Видео: MPEG4 Video (H264) 1920x1080 25fps 2546kbps
      Аудио: AAC 44100Hz stereo 125kbps

      MediaInfo

      General
      Complete name : D:\rd\Алуника Добровольская - Мужчина класса LUX. Руководство к действию\Алуника Добровольская - Мужчина класса LUX. Руководство к действию. Часть 1.mp4
      Format : MPEG-4
      Format profile : Base Media
      Codec ID : isom
      File size : 1.52 GiB
      Duration : 1h 21mn
      Overall bit rate : 2 679 Kbps
      Writing application : Lavf57.2.100Video
      ID : 1
      Format : AVC
      Format/Info : Advanced Video Codec
      Format profile : High@L4.0
      Format settings, CABAC : Yes
      Format settings, ReFrames : 2 frames
      Codec ID : avc1
      Codec ID/Info : Advanced Video Coding
      Duration : 1h 21mn
      Bit rate : 2 547 Kbps
      Width : 1 920 pixels
      Height : 1 080 pixels
      Display aspect ratio : 16:9
      Frame rate mode : Constant
      Frame rate : 25.000 fps
      Color space : YUV
      Chroma subsampling : 4:2:0
      Bit depth : 8 bits
      Scan type : Progressive
      Bits/(Pixel*Frame) : 0.049
      Stream size : 1.45 GiB (95%)Audio
      ID : 2
      Format : AAC
      Format/Info : Advanced Audio Codec
      Format profile : LC
      Codec ID : 40
      Duration : 1h 21mn
      Bit rate mode : Constant
      Bit rate : 126 Kbps
      Channel(s) : 2 channels
      Channel positions : Front: L R
      Sampling rate : 44.1 KHz
      Compression mode : Lossy
      Stream size : 73.0 MiB (5%)

      Скриншоты

      Часть 2

      Продолжительность: 01:40:03
      Качество: CAMRip
      Формат: MP4
      Видео кодек: H.264
      Аудио кодек: AAC
      Видео: MPEG4 Video (H264) 1920x1080 25fps 2538kbps
      Аудио: AAC 44100Hz stereo 125kbps

      MediaInfo

      General
      Complete name : D:\rd\Алуника Добровольская - Мужчина класса LUX. Руководство к действию\Алуника Добровольская - Мужчина класса LUX. Руководство к действию. Часть 2.mp4
      Format : MPEG-4
      Format profile : Base Media
      Codec ID : isom
      File size : 1.87 GiB
      Duration : 1h 40mn
      Overall bit rate : 2 670 Kbps
      Writing application : Lavf57.2.100Video
      ID : 1
      Format : AVC
      Format/Info : Advanced Video Codec
      Format profile : High@L4.0
      Format settings, CABAC : Yes
      Format settings, ReFrames : 2 frames
      Codec ID : avc1
      Codec ID/Info : Advanced Video Coding
      Duration : 1h 40mn
      Bit rate : 2 538 Kbps
      Width : 1 920 pixels
      Height : 1 080 pixels
      Display aspect ratio : 16:9
      Frame rate mode : Constant
      Frame rate : 25.000 fps
      Color space : YUV
      Chroma subsampling : 4:2:0
      Bit depth : 8 bits
      Scan type : Progressive
      Bits/(Pixel*Frame) : 0.049
      Stream size : 1.77 GiB (95%)Audio
      ID : 2
      Format : AAC
      Format/Info : Advanced Audio Codec
      Format profile : LC
      Codec ID : 40
      Duration : 1h 40mn
      Bit rate mode : Constant
      Bit rate : 126 Kbps
      Channel(s) : 2 channels
      Channel positions : Front: L R
      Sampling rate : 44.1 KHz
      Compression mode : Lossy
      Stream size : 89.9 MiB (5%)

      Скриншоты

  • Чтобы скачать этот контент, Вам необходимо:
    1. Скачать и установить торрент-клиент [клик для Windows], (для мобильного найдите на Play Маркет).
    2. Кликнуть по [Скачать]


    Внимание.
    Если проверка ВЫ НЕ РОБОТ - не работает, значит Вы используете устаревший браузер.
    Установите актуальный браузер и повторно кликните по [Скачать]

    Запрещён Яндекс браузер. Загрузка файлов им является ошибочной.
    Безопасность: торрент-клиент разрешён АВ Касперского.

    [asmlocator.ru].t428590.torrent 
    Торрент: Зарегистрирован [ 2017-11-05 07:50 ] · AEF8414F287D9327815A12AC0D0800EA0D6A2161

    Скачать .torrent

    Скачать

    18 KB

    Статус: проверено
    Скачан: 1 раз
    Размер: 3.39 GB
    terms.php
    [Профиль] [ЛС]
    Показать сообщения:    
    Ответить на тему

    Текущее время: 02-Июн 23:27

    Часовой пояс: UTC ± 0



    Вы не можете начинать темы
    Вы не можете отвечать на сообщения
    Вы не можете редактировать свои сообщения
    Вы не можете удалять свои сообщения
    Вы не можете голосовать в опросах
    Вы не можете прикреплять файлы к сообщениям
    Вы можете скачивать файлы
    Верим фактам, а не вранью Путина! Факт, что Правительство ведёт Россию к истреблению.
    Так как численность населения падает, даже не смотря на приток эмигрантов!
    Русская нация вымирает и вырождается, смешиваясь с эмигрантами!
    Факт, что военных и граждан предприятий заставляют голосовать за партию Единая Россия и Путина
    ПОД СТРАХОМ УВОЛЬНЕНИЯ!
    Нам не нужно Правительство, блокирующее личную жизнь, интернет, нарушающее сохранность данных.
    Все эти действия финансируются за счёт народа!