[МЦПИР] Александр Галевич - Кукловод: начало [2016, психология, манипуляции, WEBRip, RUS] (Видеоурок)

Ответить на тему
Статистика раздачи
Размер:  1,17 GB   |    Зарегистрирован:  1 год 10 месяцев   |    Скачан:  3 раза

Полного источника не было: 15 минут

 
   
 
 
Автор Сообщение

star21 ®

Пол: Женский

Стаж: 3 года 10 месяцев

Сообщений: 551989

Откуда: Екатеринбург

Создавать темы 05-Ноя-2017 07:50

[Цитировать]

Александр Галевич - Кукловод: начало Страна: Россия
Тематика: психология, манипуляции
Тип раздаваемого материала: Видеоурок
Год выпуска: 2016Язык: Русский
Перевод: Не требуетсяОб авторе: 10 лет тренерской деятельности. Специализация: манипуляции и управление людьми. Эксперт в области гендерной психологии, моды и стиля.
Автор и ведущий более 15-ти тренингов и авторских мастер-классов в проектах МЦПИР и РМЭС. Спикер всероссийских конференций по отношениям и личностному росту.3-х часовой мастер-класс, который изменит вашу жизнь.Во время общения с людьми мы часто становимся жертвами манипуляций...
А так же сами бессознательно используем манипулятивные методы, в особенности когда хотим чего-то добиться от другого человека в любой сфере жизни: в личных и семейных отношениях, в деловом общении и даже религиозные и государственные убеждения зачастую становятся манипуляцией.
Манипуляция - это любое влияние на Вас с целью получения односторонней выгоды. Поэтому искусство манипуляции - один из первых шагов на пути к успеху! Чем искуснее ты умеешь манипулировать, тем легче будешь добиваться поставленных целей и тем сложнее тобой будет управлять.Что вы узнаетеь на мастер-классе?
  • Что такое манипуляции и зачем их изучать
  • Почему в мире 99% людей манипулирует, даже сами того не осознавая
  • Как распознать манипуляции
  • Как эффективное манипулирование помогает в бизнесе, отношениях, соблазнении, продажах, ораторском мастерстве, управлении подчиненными и в общение с руководством
  • Как увидеть то, что тобой манипулируют, и как этому противостоять
  • Стратегические и тактические манипуляции, что это такое и в чем их отличие
  • Что такое профайл-портрет и какая его роль в манипулировании
    Продолжительность: 03:11:28
    Качество: WEBRip
    Формат: MP4
    Видео кодек: H.264
    Аудио кодек: AAC
    Видео: MPEG4 Video (H264) 1280x720 30fps 777kbps
    Аудио: AAC 44100Hz stereo 89kbps

MediaInfo

General
Complete name : D:\rd\Александр Галевич - Кукловод начало.mp4
Format : MPEG-4
Format profile : Base Media
Codec ID : isom
File size : 1.17 GiB
Duration : 3h 11mn
Overall bit rate mode : Variable
Overall bit rate : 872 Kbps
Encoded date : UTC 2016-09-17 13:14:49
Tagged date : UTC 2016-09-17 13:14:49
Writing application : Lavf52.93.0
Comment : Advanced Video Compressor - WinSoftMagic.comVideo
ID : 1
Format : AVC
Format/Info : Advanced Video Codec
Format profile : High@L3.1
Format settings, CABAC : Yes
Format settings, ReFrames : 3 frames
Codec ID : avc1
Codec ID/Info : Advanced Video Coding
Duration : 3h 11mn
Bit rate : 780 Kbps
Width : 1 280 pixels
Height : 720 pixels
Display aspect ratio : 16:9
Frame rate mode : Constant
Frame rate : 30.000 fps
Color space : YUV
Chroma subsampling : 4:2:0
Bit depth : 8 bits
Scan type : Progressive
Bits/(Pixel*Frame) : 0.028
Stream size : 1.04 GiB (89%)
Writing library : x264 core 112
Encoding settings : cabac=1 / ref=3 / deblock=1:0:0 / analyse=0x3:0x113 / me=hex / subme=7 / psy=1 / psy_rd=1.00:0.00 / mixed_ref=1 / me_range=16 / chroma_me=1 / trellis=1 / 8x8dct=1 / cqm=0 / deadzone=21,11 / fast_pskip=1 / chroma_qp_offset=-2 / threads=1 / sliced_threads=0 / nr=0 / decimate=1 / interlaced=0 / constrained_intra=0 / bframes=3 / b_pyramid=0 / b_adapt=1 / b_bias=0 / direct=1 / weightb=1 / open_gop=0 / weightp=2 / keyint=250 / keyint_min=25 / scenecut=40 / intra_refresh=0 / rc_lookahead=40 / rc=abr / mbtree=1 / bitrate=780 / ratetol=1.0 / qcomp=0.60 / qpmin=10 / qpmax=51 / qpstep=4 / ip_ratio=1.41 / aq=1:1.00
Encoded date : UTC 2016-09-17 13:14:49
Tagged date : UTC 2016-09-17 13:14:49Audio
ID : 2
Format : AAC
Format/Info : Advanced Audio Codec
Format profile : LC
Codec ID : 40
Duration : 3h 11mn
Bit rate mode : Variable
Bit rate : 89.3 Kbps
Channel(s) : 2 channels
Channel positions : Front: L R
Sampling rate : 44.1 KHz
Compression mode : Lossy
Stream size : 122 MiB (10%)
Encoded date : UTC 2016-09-17 13:14:49
Tagged date : UTC 2016-09-17 13:14:49

Скриншоты


Чтобы скачать этот контент, Вам необходимо:
1. Скачать и установить торрент-клиент [клик для Windows], (для мобильного найдите на Play Маркет).
2. Кликнуть по [Скачать]


Внимание.
Если проверка ВЫ НЕ РОБОТ - не работает, значит Вы используете устаревший браузер.
Установите актуальный браузер и повторно кликните по [Скачать]
Безопасность: торрент-клиент разрешён АВ Касперского.

[asmlocator.ru].t428586.torrent 
Торрент: Зарегистрирован [ 2017-11-05 07:50 ] · 164106D68E3433BE0CF1AB7D7BE41B11BECB529A

Скачать .torrent

Скачать

12 KB

Статус: проверено
Скачан: 3 раз
Размер: 1,17 GB
terms.php
[Профиль] [ЛС]
Показать сообщения:    
Ответить на тему

Текущее время: 18-Сен 02:05

Часовой пояс: UTC ± 0



Вы не можете начинать темы
Вы не можете отвечать на сообщения
Вы не можете редактировать свои сообщения
Вы не можете удалять свои сообщения
Вы не можете голосовать в опросах
Вы не можете прикреплять файлы к сообщениям
Вы можете скачивать файлы
Верим фактам, а не вранью Путина! Факт, что Правительство ведёт Россию к истреблению.
Так как численность населения падает, даже не смотря на приток эмигрантов!
Русская нация вымирает и вырождается, смешиваясь с эмигрантами!
Факт, что военных и граждан предприятий заставляют голосовать за партию Единая Россия и Путина
ПОД СТРАХОМ УВОЛЬНЕНИЯ!
Нам не нужно Правительство, блокирующее личную жизнь, интернет, нарушающее сохранность данных.
Все эти действия финансируются за счёт народа!