(Heavy Metal, Death Metal, Hard Rock, Thrash) [CD] VA - Hard Rock N°23, Contines De Noel - Contines De Noël - 1998, FLAC (image+.cue), lossless

Ответить на тему
Статистика раздачи
Размер:  448 MB   |    Зарегистрирован:  1 год 11 месяцев   |    Скачан:  0 раз

Полного источника не было: Никогда

 
   
 
 
Автор Сообщение

star21 ®

Пол: Женский

Стаж: 3 года 10 месяцев

Сообщений: 551989

Откуда: Екатеринбург

Создавать темы 03-Окт-2017 06:46

[Цитировать]

.Hard Rock N°23 - Contines De Noël
(CD, Sampler).Жанр: Hard Rock, Heavy Metal, Speed Metal,
Death Metal, Black Metal, Thrash, Goth Rock

Носитель: CD
Страна-производитель диска (релиза): France
Год издания: 1998
Издатель (лейбл): Hard Rock
Номер по каталогу: HRCD0023
Аудиокодек: FLAC (*.flac)
Тип рипа: image+.cue
Битрейт аудио: lossless
Продолжительность: 00:59:34
Источник (релизер): stas64
Наличие сканов в содержимом раздачи: да - 600 dpi
.
.
.
Треклист:01. Misanthrope - Misanthrope Necromancer.
02. Hammer Fall - Steel Meets Steel (Live) (inedit en france).
03. Loudblast - Pleasure Focus (Live) (hors commerce).
04. Exhumation - Image Of Our Extinction.
05. Eldritch - From Dusk Till Dawn.
06. Motorhead - Over Youe Shoulder.
07. Grip Inc. - Ostracized.
08. Stratovarius - Black Diamond.
09. Paradise Lost - Mercy.
10. The Gathering - Strange Machines.
11. Moonspell - Opium.
12. Cradle Of Filth - Beauty Slept In Sodom.
13. Samael - Angel's Decay.

Booklet


Лог создания рипа

Exact Audio Copy V1.1 from 23. June 2015Отчёт EAC об извлечении, выполненном 8. апреля 2016, 1:12Various / Hard Rock N 23Дисковод: PLEXTOR DVDR   PX-712A   Adapter: 6  ID: 0Режим чтения                 : ДостоверностьИспользование точного потока : ДаОтключение кэша аудио        : ДаИспользование указателей C2  : НетКоррекция смещения при чтении                     : 30Способность читать области Lead-in и Lead-out     : НетЗаполнение пропущенных сэмплов тишиной            : ДаУдаление блоков с тишиной в начале и конце        : НетПри вычислениях CRC использовались нулевые сэмплы : ДаИнтерфейс                                         : Установленный внешний ASPI-интерфейсВыходной формат          : Пользовательский кодировщикВыбранный битрейт        : 128 kBit/sКачество                 : ВысокийДобавление ID3-тега      : НетУтилита сжатия           : C:\Program Files\Exact Audio Copy\Flac\flac.exeДополнительные параметры : -V -8 -T "Genre=%genre%" -T "Artist=%artist%" -T "Title=%title%" -T "Album=%albumtitle%" -T "Date=%year%" -T "Tracknumber=%tracknr%" -T "Comment=%comment%" %source%TOC извлечённого CD     Трек |   Старт  | Длительность | Начальный сектор | Конечный сектор    ---------------------------------------------------------------------       1  |  0:00.32 |    5:04.35   |          32      |      22866       2  |  5:04.67 |    4:01.33   |       22867      |      40974       3  |  9:06.25 |    4:06.05   |       40975      |      59429       4  | 13:12.30 |    5:01.27   |       59430      |      82031       5  | 18:13.57 |    5:38.65   |       82032      |     107446       6  | 23:52.47 |    3:19.18   |      107447      |     122389       7  | 27:11.65 |    3:10.22   |      122390      |     136661       8  | 30:22.12 |    5:41.15   |      136662      |     162251       9  | 36:03.27 |    4:25.43   |      162252      |     182169      10  | 40:28.70 |    6:02.70   |      182170      |     209389      11  | 46:31.65 |    2:49.17   |      209390      |     222081      12  | 49:21.07 |    6:33.18   |      222082      |     251574      13  | 55:54.25 |    3:40.10   |      251575      |     268084Характеристики диапазона извлечения и сообщения об ошибкахВыбранный диапазон     Имя файла I:\MOI_RAZDACI\VA_Hard.Rock.N.23_1998\VA_Hard.Rock.N.23_1998\Various - Hard Rock N 23.wav     Пиковый уровень 99.6 %     Скорость извлечения 12.9 X     Качество диапазона 100.0 %     CRC теста 490FFA69     CRC копии 490FFA69     Копирование... OKОшибок не произошлоAccurateRip: сводкаТрек  1  отсутствует в базе данныхТрек  2  отсутствует в базе данныхТрек  3  отсутствует в базе данныхТрек  4  отсутствует в базе данныхТрек  5  отсутствует в базе данныхТрек  6  отсутствует в базе данныхТрек  7  отсутствует в базе данныхТрек  8  отсутствует в базе данныхТрек  9  отсутствует в базе данныхТрек 10  отсутствует в базе данныхТрек 11  отсутствует в базе данныхТрек 12  отсутствует в базе данныхТрек 13  отсутствует в базе данныхНи одного трека нет в базе AccurateRipКонец отчёта---- CUETools DB Plugin V2.1.6[CTDB TOCID: JSFikJ.sKVwKtj2RXHSWiMb5Sjs-] disk not present in databaseSubmit result: JSFikJ.sKVwKtj2RXHSWiMb5Sjs- has been uploaded==== Контрольная сумма отчёта 947B82DB270B19B358437C4E941DE390025D8E46280F51003E6FA9453436037F ====

Содержание индексной карты (.CUE)

REM GENRE "Heavy Metal"REM DATE 1998REM DISCID B80DF60DREM COMMENT "ExactAudioCopy v1.1"PERFORMER "Various"TITLE "Hard Rock N 23 "FILE "Various - Hard Rock N 23.flac" WAVE  TRACK 01 AUDIO    TITLE "Misanthrope Necromancer"    PERFORMER "Misanthrope"    INDEX 00 00:00:00    INDEX 01 00:00:32  TRACK 02 AUDIO    TITLE "Steel Meets Steel (Live) (inedit en france)"    PERFORMER "Hammer Fall"    INDEX 00 05:03:70    INDEX 01 05:04:67  TRACK 03 AUDIO    TITLE "Pleasure Focus (Live) (hors commerce)"    PERFORMER "Loudblast"    INDEX 00 09:06:14    INDEX 01 09:06:25  TRACK 04 AUDIO    TITLE "Image Of Our Extinction"    PERFORMER "Exhumation"    INDEX 00 13:11:27    INDEX 01 13:12:30  TRACK 05 AUDIO    TITLE "From Dusk Till Dawn"    PERFORMER "Eldritch"    INDEX 00 18:13:55    INDEX 01 18:13:57  TRACK 06 AUDIO    TITLE "Over Youe Shoulder"    PERFORMER "Motorhead"    INDEX 00 23:50:71    INDEX 01 23:52:47  TRACK 07 AUDIO    TITLE "Ostracized"    PERFORMER "Grip Inc."    INDEX 00 27:10:59    INDEX 01 27:11:65  TRACK 08 AUDIO    TITLE "Black Diamond"    PERFORMER "Stratovarius"    INDEX 00 30:20:62    INDEX 01 30:22:12  TRACK 09 AUDIO    TITLE "Mercy"    PERFORMER "Paradise Lost"    INDEX 00 36:01:74    INDEX 01 36:03:27  TRACK 10 AUDIO    TITLE "Strange Machines"    PERFORMER "The Gathering"    INDEX 00 40:26:60    INDEX 01 40:28:70  TRACK 11 AUDIO    TITLE "Opium"    PERFORMER "Moonspell"    INDEX 00 46:30:48    INDEX 01 46:31:65  TRACK 12 AUDIO    TITLE "Beauty Slept In Sodom"    PERFORMER "Cradle Of Filth"    INDEX 00 49:20:01    INDEX 01 49:21:07  TRACK 13 AUDIO    TITLE "Angel's Decay"    PERFORMER "Samael"    INDEX 00 55:53:09    INDEX 01 55:54:25

Лог проверки качества

-----------------------DON'T MODIFY THIS FILE-----------------------PERFORMER: auCDtect Task Manager, ver. 1.5.1RC6 build 1.5.1.7Copyright (c) 2008-2010 y-soft. All rights reservedhttp://y-soft.orgANALYZER: auCDtect: CD records authenticity detector, version 0.8.2Copyright (c) 2004 Oleg Berngardt. All rights reserved.Copyright (c) 2004 Alexander Djourik. All rights reserved.FILE: Various - Hard Rock N 23.flac  Size: 459742117 Hash: 8332DA7CF7C8B14F97A95ACE6107DE67 Accuracy: -m0  Conclusion: CDDA 100%  Signature: 241D206F0780379C7572D940CE916836FCA32A0A

Скриншот спектра частот

МОИ РАЗДАЧИ - МУЗЫКА: / MY DISTRIBUTION - MUSIC:

Rock music:

Прямые кликабельные ссылки на раздачи.
Direct clickable links to hand.




























Pop music:

Прямые кликабельные ссылки на раздачи.
Direct clickable links to hand.
































Other music including Electronic and Soundtracks:

Прямые кликабельные ссылки на раздачи.
Direct clickable links to hand.



























Чтобы скачать этот контент, Вам необходимо:
1. Скачать и установить торрент-клиент [клик для Windows], (для мобильного найдите на Play Маркет).
2. Кликнуть по [Скачать]


Внимание.
Если проверка ВЫ НЕ РОБОТ - не работает, значит Вы используете устаревший браузер.
Установите актуальный браузер и повторно кликните по [Скачать]
Безопасность: торрент-клиент разрешён АВ Касперского.

[asmlocator.ru].t397013.torrent 
Торрент: Зарегистрирован [ 2017-10-03 06:45 ] · 1EE5D8F361B14C5CD84A70922E985BA93E0DAB5E

Скачать .torrent

Скачать

18 KB

Статус: проверено
Скачан: 0 раз
Размер: 448 MB
terms.php
[Профиль] [ЛС]
Показать сообщения:    
Ответить на тему

Текущее время: 18-Сен 02:05

Часовой пояс: UTC ± 0



Вы не можете начинать темы
Вы не можете отвечать на сообщения
Вы не можете редактировать свои сообщения
Вы не можете удалять свои сообщения
Вы не можете голосовать в опросах
Вы не можете прикреплять файлы к сообщениям
Вы можете скачивать файлы
Верим фактам, а не вранью Путина! Факт, что Правительство ведёт Россию к истреблению.
Так как численность населения падает, даже не смотря на приток эмигрантов!
Русская нация вымирает и вырождается, смешиваясь с эмигрантами!
Факт, что военных и граждан предприятий заставляют голосовать за партию Единая Россия и Путина
ПОД СТРАХОМ УВОЛЬНЕНИЯ!
Нам не нужно Правительство, блокирующее личную жизнь, интернет, нарушающее сохранность данных.
Все эти действия финансируются за счёт народа!