Собор святого Петра и патриаршие базилики Рима / St. Peter\'s and the Papal Basilicas of Rome (Лука Викотто / Luca Vicotto) [2016, документальный, история, архитектура, христианство, DVB]

Reply to topic
DL-List and Torrent activity
Size:  2.06 GB   |    Registered:  2 years 2 months   |    Completed:  0 times

Seeder not seen: Never

 
   
 
 
Author Message

star21 ®

Gender: Female

Longevity: 3 years 9 months

Posts: 551989

Location: Екатеринбург

Post 25-Jun-2017 13:15

[Quote]

Собор святого Петра и патриаршие базилики Рима / St. Peter's and the Papal Basilicas of Rome Дата/Год выпуска: 2016
Страна: Италия
Жанр: документальный, история, архитектура, христианство
Продолжительность: 01:27:25
Перевод: Профессиональный (многоголосый закадровый), Нева-фильм, текст читает Леонид Парфенов
Русские субтитры: нетРежиссер: Лука Викотто / Luca VicottoТелеканал: История
Описание: Зрителю представится эксклюзивная возможность посетить четыре главные базилики Рима и прикоснуться к скрытым сокровищам Вечного города. А развернутые комментарии ведущих экспертов архитектуры и скульптуры позволят глубоко погрузиться в историю и современность этих легендарных сооружений.Доп. информация: «Собор Святого Петра и Патриаршие Базилики Рима 3D» — это уникальный фильм, созданный по случаю провозглашения Папой Римским Франциском внеочередного Юбилейного года Милосердия (2015-2016).
Фильм познакомит нас с тем, что происходило с этими удивительными сооружениями на протяжении столетий, расскажет историю наиболее известных произведений искусства, хранящихся в них, поможет постичь те глубочайшие смыслы, что скрыты в стенах этих великих базилик.
Зрителю будут рассказаны истории из жизни самих пап и великих художников, которых они привлекали к работе; зрители станут свидетелями событий, благодаря которым эти сооружения стали бессмертными.
Кроме того, зрителю откроются тайны и легенды, связанные с удивительными произведениями монументального искусства. Архитектура, живопись, история и духовность – обо всем об этом будет рассказано устами тех, кто хорошо знаком с самыми сокровенными местами этих зданий.
Благодаря передовым технологиям, использованным во время съемок фильма, зрители смогут по-настоящему прочувствовать атмосферу этих священных мест. Съемки с вертолета, использование беспилотных дронов и «механических рук», способных достигать 50-тиметровой высоты, а также съемки в формате 3D и 3D-реконструкции старинных карт и чертежей.
Никого не оставят равнодушными уникальные художественные коллекции, находящиеся в Патриарших Базиликах Рима, которые включают художественные и архитектурные произведения искусства таких прославленных художников и архитекторов, как Бернини, Борромини, Браманте, Микеланджело, Рафаэля, Арнольфоди Камбио и Доменико Фонтана.
Фильм “Собор Святого Петра и Патриаршие Базилики Рима 3D” предоставит зрителям эксклюзивный доступ к местам, которые обычно закрыты для публики (к примеру, редчайшие кадры открытия царских врат папой Франциском).Сэмпл: http://multi-up.com/1157251качество: DVB
формат: MPG
Видео: MPEG2 Video 720x576 (4:3) 25fps 3150kbps
Аудио: MPEG Audio 48000Hz stereo 192kbps

MediaInfo

GeneralComplete name                  : F:\Архитектура\Собор святого Петра и патриаршие  базилики Рима\Собор святого Петра и патриаршие  базилики Рима.mpgFormat                         : MPEG-PSFile size                      : 2.06 GiBDuration                       : 1h 27mnOverall bit rate               : 3 380 KbpsVideoID                             : 224 (0xE0)Format                         : MPEG VideoFormat version                 : Version 2Format profile                 : Main@MainFormat settings, BVOP          : YesFormat settings, Matrix        : CustomFormat settings, GOP           : VariableFormat settings, picture struc : FrameDuration                       : 1h 27mnBit rate                       : 3 150 KbpsWidth                          : 720 pixelsHeight                         : 576 pixelsDisplay aspect ratio           : 4:3Frame rate                     : 25.000 fpsStandard                       : PALColor space                    : YUVChroma subsampling             : 4:2:0Bit depth                      : 8 bitsScan type                      : InterlacedScan order                     : Top Field FirstCompression mode               : LossyBits/(Pixel*Frame)             : 0.304Time code of first frame       : 00:00:00:00Time code source               : Group of pictures headerStream size                    : 1.91 GiB (92%)AudioID                             : 192 (0xC0)Format                         : MPEG AudioFormat version                 : Version 1Format profile                 : Layer 2Duration                       : 1h 27mnBit rate mode                  : ConstantBit rate                       : 192 KbpsChannel(s)                     : 2 channelsSampling rate                  : 48.0 KHzCompression mode               : LossyStream size                    : 120 MiB (6%)
Мои раздачи: архитектура, искусство, недвижимость http://rutracker.org/forum/tracker.php?rid=8171303

To download the content you need:
1. Download and install torrent client [for Windows] or for mobile system
2. Click on [Download]
Attention.
If the test YOU are NOT a ROBOT - does not work, then You are using an outdated browser.
Install the current browser and click on [Download]
Security: torrent client is allowed by Kaspersky.

[asmlocator.ru].t358115.torrent 
Torrent: Registered [ 2017-06-25 13:15 ] · F07C8CC391BCD48E4F880674BBC17FBD5B8B2950

Download .torrent

Download

11 KB

Status: checked
Completed: 0 times
Size: 2.06 GB
terms.php
[Profile] [PM]
Display posts:    
Reply to topic

Current time is: 25-Aug 21:53

All times are UTC ± 0



You cannot post new topics in this forum
You cannot reply to topics in this forum
You cannot edit your posts in this forum
You cannot delete your posts in this forum
You cannot vote in polls in this forum
You cannot attach files in this forum
You can download files in this forum
We believe the facts, not Putin's lies! The fact that the Government is leading Russia to extermination.
Since the population is falling, even despite the influx of emigrants!
The Russian nation is dying and degenerating, mingling with emigrants!
The fact that military and business citizens are forced to vote for the party United Russia and Putin
UNDER FEAR OF FIRING!
We do not need a government that blocks privacy, the Internet, which violates the safety of data.
All these actions are funded by the people!
Half of the people of Russia are below the poverty line!