Удивительные дома (11 эпизодов) / Amazing Homes [2013-2015, документальный, развлекательный, архитектура, интерьер, DVB]

Reply to topic
DL-List and Torrent activity
Size:  14.09 GB   |    Registered:  2 years 2 months   |    Completed:  0 times

Seeder not seen: 1 year 4 months

 
   
 
 
Author Message

star21 ®

Gender: Female

Longevity: 3 years 9 months

Posts: 551989

Location: Екатеринбург

Post 30-May-2017 18:50

[Quote]

Удивительные дома (11 эпизодов) / Amazing Homes Дата/Год выпуска: 2013-2015
Страна: США
Жанр: документальный, развлекательный, архитектура, интерьер
Продолжительность: серии по ~ 42 мин.
Перевод: Профессиональный (двухголосый закадровый)
Русские субтитры: нетТелеканал: Fine Living
Описание: Мировой архитектуре известно немало оригинальных, но в тоже время прекрасных построек необычной формы. Творения талантливых архитекторов приковывают восхищенные взгляды людей. Построить нестандартный дом – значит выделить его из массы обычных строений. Именно этого добиваются талантливые архитекторы, придавая своим шедеврам оригинальный дизайн и глубинный смысл. Ну, а каково же жить в таком доме - завтракать по утрам, встречать рассветы и закаты, проводить время с друзьями и родными? У вас есть удивительная возможность заглянуть внутрь и познакомиться с их обитателями, которые сами проведут вам экскурсию и все расскажут. Убедитесь сами, что секрет успеха - прекрасно организованное пространство, идеально приспособленное под нужды их обладателей, а также их своеобразные вкусы, ну, и конечно, финансовые возможности...Сэмпл: http://multi-up.com/1155892качество: DVB
формат: MPG
Видео: MPEG2 Video 720x576 (16:9) 25fps 15000kbps
Аудио: MPEG Audio 48000Hz mono 96kbps

Список выпусков/серий

01.Удивительные прибрежные дома
02. Удивительные бревенчатые дома-1
03. Удивительные бревенчатые дома-2
04. Поразительные кухни
05. Топ-10 поразительные кухни
06. Жизнь на воде
07. Образцовые романтические спальни
08. Удивительные дома на воде
09. Потайные уголки (дома с секретными проходами и комнатами)
10. Гардеробная на миллион
11. Что с этим поистине дорогим домом?

MediaInfo

GeneralComplete name                  : F:\Недвижимость\Удивительные дома\08. Удивительные дома на воде.mpgFormat                         : MPEG-PSFile size                      : 1.30 GiBDuration                       : 42mn 8sOverall bit rate mode          : VariableOverall bit rate               : 4 410 KbpsVideoID                             : 224 (0xE0)Format                         : MPEG VideoFormat version                 : Version 2Format profile                 : Main@MainFormat settings, BVOP          : YesFormat settings, Matrix        : CustomFormat settings, GOP           : M=3, N=12Format settings, picture struc : FrameDuration                       : 42mn 8sBit rate mode                  : VariableBit rate                       : 4 226 KbpsMaximum bit rate               : 15.0 MbpsWidth                          : 720 pixelsHeight                         : 576 pixelsDisplay aspect ratio           : 16:9Frame rate                     : 25.000 fpsStandard                       : PALColor space                    : YUVChroma subsampling             : 4:2:0Bit depth                      : 8 bitsScan type                      : InterlacedScan order                     : Top Field FirstCompression mode               : LossyBits/(Pixel*Frame)             : 0.408Time code of first frame       : 00:00:00:00Time code source               : Group of pictures headerStream size                    : 1.24 GiB (96%)AudioID                             : 192 (0xC0)Format                         : MPEG AudioFormat version                 : Version 1Format profile                 : Layer 2Duration                       : 42mn 8sBit rate mode                  : ConstantBit rate                       : 96.0 KbpsChannel(s)                     : 1 channelSampling rate                  : 48.0 KHzCompression mode               : LossyDelay relative to video        : 24msStream size                    : 28.9 MiB (2%)
Мои раздачи: архитектура, искусство, недвижимость http://rutracker.org/forum/tracker.php?rid=8171303

To download the content you need:
1. Download and install torrent client [for Windows] or for mobile system
2. Click on [Download]
Attention.
If the test YOU are NOT a ROBOT - does not work, then You are using an outdated browser.
Install the current browser and click on [Download]
Security: torrent client is allowed by Kaspersky.

[asmlocator.ru].t353533.torrent 
Torrent: Registered [ 2017-05-30 18:50 ] · 3322A29D8D3332A62A4AB992C5C11C6BF1C4F7A4

Download .torrent

Download

72 KB

Status: checked
Completed: 0 times
Size: 14.09 GB
terms.php
[Profile] [PM]
Display posts:    
Reply to topic

Current time is: 23-Aug 16:47

All times are UTC ± 0



You cannot post new topics in this forum
You cannot reply to topics in this forum
You cannot edit your posts in this forum
You cannot delete your posts in this forum
You cannot vote in polls in this forum
You cannot attach files in this forum
You can download files in this forum