Свежий взгляд на бассейны / Cool Pools (Дэйл Рой Робинсон / Dale Roy Robinson) [2014, документальный, развлекательный, архитектура, DVB]

Ответить на тему
Статистика раздачи
Размер:  1.32 GB   |    Зарегистрирован:  2 года 7 месяцев   |    Скачан:  0 раз

Полного источника не было: 2 года 6 месяцев

 
   
 
 
Автор Сообщение

star21 ®

Пол: Женский

Стаж: 4 года 2 месяца

Сообщений: 551946

Откуда: Екатеринбург

Создавать темы 30-Май-2017 18:50

[Цитировать]

Свежий взгляд на бассейны / Cool Pools Дата/Год выпуска: 2014
Страна: США
Жанр: документальный, развлекательный, архитектура
Продолжительность: 00:42:43
Перевод: Профессиональный (двухголосый закадровый)
Русские субтитры: нетРежиссер: Дэйл Рой Робинсон / Dale Roy RobinsonТелеканал: Fine Living
Описание: Вы увидите самые невероятные и уникальные в своем роде бассейны. Отдых на пляже с белым мягким песком приносит огромное удовольствие. Теплая морская вода лазурного цвета, яркое солнце и воздушные ванны... Но не стоит упускать из внимания бассейны. Они также обладают своими достоинствами. Бассейны могут располагаться в окружении гор, океана или озера. Плаваете ли вы для удовольствия, либо же это для вас спорт, вы просто должны увидеть эти бассейны, от которых захватывает дух.Сэмпл: http://multi-up.com/1156043качество: DVB
формат: MPG
Видео: MPEG2 Video 720x576 (16:9) 25fps 15000kbps
Аудио: MPEG Audio 48000Hz mono 96kbps

MediaInfo

GeneralComplete name                  : F:\Недвижимость\3. Свежий взгляд на бассейны.mpgFormat                         : MPEG-PSFile size                      : 1.32 GiBDuration                       : 42mn 43sOverall bit rate mode          : VariableOverall bit rate               : 4 410 KbpsVideoID                             : 224 (0xE0)Format                         : MPEG VideoFormat version                 : Version 2Format profile                 : Main@MainFormat settings, BVOP          : YesFormat settings, Matrix        : CustomFormat settings, GOP           : M=3, N=12Format settings, picture struc : FrameDuration                       : 42mn 43sBit rate mode                  : VariableBit rate                       : 4 226 KbpsMaximum bit rate               : 15.0 MbpsWidth                          : 720 pixelsHeight                         : 576 pixelsDisplay aspect ratio           : 16:9Frame rate                     : 25.000 fpsStandard                       : PALColor space                    : YUVChroma subsampling             : 4:2:0Bit depth                      : 8 bitsScan type                      : InterlacedScan order                     : Top Field FirstCompression mode               : LossyBits/(Pixel*Frame)             : 0.408Time code of first frame       : 00:00:00:00Time code source               : Group of pictures headerStream size                    : 1.26 GiB (96%)AudioID                             : 192 (0xC0)Format                         : MPEG AudioFormat version                 : Version 1Format profile                 : Layer 2Duration                       : 42mn 43sBit rate mode                  : ConstantBit rate                       : 96.0 KbpsChannel(s)                     : 1 channelSampling rate                  : 48.0 KHzCompression mode               : LossyDelay relative to video        : 24msStream size                    : 29.3 MiB (2%)

Скриншоты

Мои раздачи: архитектура, искусство, недвижимость http://rutracker.org/forum/tracker.php?rid=8171303

Чтобы скачать этот контент, Вам необходимо:
1. Скачать и установить торрент-клиент [клик для Windows], (для мобильного найдите на Play Маркет).
2. Кликнуть по [Скачать]


Внимание.
Если проверка ВЫ НЕ РОБОТ - не работает, значит Вы используете устаревший браузер.
Установите актуальный браузер и повторно кликните по [Скачать]
Безопасность: торрент-клиент разрешён АВ Касперского.

[asmlocator.ru].t353532.torrent 
Торрент: Зарегистрирован [ 2017-05-30 18:50 ] · 181C3E47C83B30F7A66D117A33F78EF6FFE74831

Скачать .torrent

Скачать

14 KB

Статус: проверено
Скачан: 0 раз
Размер: 1.32 GB
terms.php
[Профиль] [ЛС]
Показать сообщения:    
Ответить на тему

Текущее время: 18-Янв 18:42

Часовой пояс: UTC ± 0



Вы не можете начинать темы
Вы не можете отвечать на сообщения
Вы не можете редактировать свои сообщения
Вы не можете удалять свои сообщения
Вы не можете голосовать в опросах
Вы не можете прикреплять файлы к сообщениям
Вы можете скачивать файлы
Верим фактам, а не вранью Путина! Факт, что Правительство ведёт Россию к истреблению.
Так как численность населения падает, даже не смотря на приток эмигрантов!
Русская нация вымирает и вырождается, смешиваясь с эмигрантами!
Факт, что военных и граждан предприятий заставляют голосовать за партию Единая Россия и Путина
ПОД СТРАХОМ УВОЛЬНЕНИЯ!
Нам не нужно Правительство, блокирующее личную жизнь, интернет, нарушающее сохранность данных.
Все эти действия финансируются за счёт народа!