Таврический дворец / The Tauride Palace (Сергей Ермоленко / Sergey Yermolenko) [2012, документальный, архитектура, искусство, история, DVB]

Reply to topic
DL-List and Torrent activity
Size:  978 MB   |    Registered:  2 years 3 months   |    Completed:  0 times

Seeder not seen: Never

 
   
 
 
Author Message

star21 ®

Gender: Female

Longevity: 3 years 9 months

Posts: 551989

Location: Екатеринбург

Post 29-Apr-2017 09:10

[Quote]

Таврический дворец / The Tauride Palace
Дата/Год выпуска: 2012
Страна: Россия
Жанр: документальный, архитектура, искусство, история
Продолжительность: 00:34:36
Перевод: Не требуется
Режиссер: Сергей Ермоленко / Sergey Yermolenko
Телеканал: RTG
Описание: Таврический дворец - символ триумфа светлейшего князя Григория Потёмкина, фаворита императрицы Екатерины Второй. Он был единственным человеком, которому государыня действительно доверяла. И не только своё сердце, но и дела Российской империи. Потёмкина называли вторым человеком в государстве, некоронованным императором, его заслуги перед Россией велики. И это монументальное здание, как бы стремясь соответствовать личности Светлейшего, стало эталоном классической архитектуры в России на рубеже 18-19 веков. Во многих губерниях строили усадьбы с таким же шестиколонным портиком и треугольным фронтоном. А богатство внутреннего убранства дворца вызывало зависть даже у избалованных роскошью аристократов. 20 век вдохнул в Таврический дворец новую жизнь, политическую - здесь заседал первый парламент Российской империи. В настоящее время во дворце располагается штаб-квартира спикеров стран содружества независимых государств.
Сэмпл: http://multi-up.com/1151363
качество: DVB
формат: MPG
Видео: MPEG2 Video 720x576 (4:3) 25fps
Аудио: MPEG Audio 48000Hz stereo 192kbps

MediaInfo

GeneralComplete name                  : F:\Архитектура\16. Таврический дворец.mpgFormat                         : MPEG-PSFile size                      : 978 MiBDuration                       : 34mn 36sOverall bit rate mode          : VariableOverall bit rate               : 3 952 Kbps
VideoID : 224 (0xE0)Format : MPEG VideoFormat version : Version 2Format profile : Main@MainFormat settings, BVOP : YesFormat settings, Matrix : CustomFormat settings, GOP : VariableFormat settings, picture struc : FrameDuration : 34mn 36sBit rate mode : VariableBit rate : 3 681 KbpsMaximum bit rate : 3 800 KbpsWidth : 720 pixelsHeight : 576 pixelsDisplay aspect ratio : 4:3Frame rate : 25.000 fpsStandard : PALColor space : YUVChroma subsampling : 4:2:0Bit depth : 8 bitsScan type : InterlacedScan order : Top Field FirstCompression mode : LossyBits/(Pixel*Frame) : 0.355Time code of first frame : 00:00:00:00Time code source : Group of pictures headerStream size : 911 MiB (93%)
AudioID : 192 (0xC0)Format : MPEG AudioFormat version : Version 1Format profile : Layer 2Duration : 34mn 36sBit rate mode : ConstantBit rate : 192 KbpsChannel(s) : 2 channelsSampling rate : 48.0 KHzCompression mode : LossyStream size : 47.5 MiB (5%)
Другие мои раздачи: архитектура, недвижимость, живопись http://rutracker.org/forum/tracker.php?rid=8171303

To download the content you need:
1. Download and install torrent client [for Windows] or for mobile system
2. Click on [Download]
Attention.
If the test YOU are NOT a ROBOT - does not work, then You are using an outdated browser.
Install the current browser and click on [Download]
Security: torrent client is allowed by Kaspersky.

[asmlocator.ru].t344230.torrent 
Torrent: Registered [ 2017-04-29 09:10 ] · 88857F3668E3B403EB4AB42B58C51A9187BA1D5D

Download .torrent

Download

20 KB

Status: checked
Completed: 0 times
Size: 978 MB
terms.php
[Profile] [PM]
Display posts:    
Reply to topic

Current time is: 23-Aug 16:45

All times are UTC ± 0



You cannot post new topics in this forum
You cannot reply to topics in this forum
You cannot edit your posts in this forum
You cannot delete your posts in this forum
You cannot vote in polls in this forum
You cannot attach files in this forum
You can download files in this forum