Коллекция памятников ЮНЕСКО на территории Чешской республики (13 серий из 13) / National Jewels: UNESCO World Heritage in the Czech Republic (Мирослав Таборский / Miroslav Taborsky) [2012, документальный, исторический, архитектура, искусство, DVBRip]

Ответить на тему
Статистика раздачи
Размер:  3.59 GB   |    Зарегистрирован:  2 года 10 месяцев   |    Скачан:  0 раз

Полного источника не было: 4 месяца 8 дней

 
   
 
 
Автор Сообщение

star21 ®

Пол: Женский

Стаж: 4 года 3 месяца

Сообщений: 551946

Откуда: Екатеринбург

Создавать темы 30-Мар-2017 04:55

[Цитировать]

Коллекция памятников ЮНЕСКО на территории Чешской республики (1-13 серии из 13) / National Jewels: UNESCO World Heritage in the Czech Republic
Дата/Год выпуска: 2012
Страна: Чехия
Жанр: документальный, исторический, архитектура, искусст
Продолжительность: 13 серий по ~26 мин.
Перевод: Студийный (одноголосый закадровый)
Доп. инфо о переводе: SDI-Media
Режиссер: Мирослав Таборский / Miroslav Taborsky
Телеканал: 365 дней
Описание: Чехия – одна из самых красивых стран Европы, притягивающая множество туристов, потому как архитектурное и художественное наследие этой страны очень разнообразно. Фильм режиссера Мирослава Таборского расскажет об уникальных национальных архитектурных сокровищах Чехии, включенных в список Всемирного наследия ЮНЕСКО.
Сэмпл: http://multi-up.com/1127398
качество: DVBRip
формат: AVI
Видео: Xvid 704x416 25fps 1920kbps [V: mpeg4 advanced simple profile, yuv420p, 704x416, 1920 kb/s]
Аудио: MP3 48000Hz stereo 128kbps [A: mp3, 48000 Hz, stereo, 128 kb/s]

Список выпусков/серий

01. Чешский Крумлов. От реки до небес / Český Krumlov - od řeky k nebesům (2012)
02. Тельч. Озёрная роза / Telč - jezerní růže (2012)
03. Голашовице: наследие Средневековья / Holašovice - odkaz středověku (2012)
04. Кромержиж: течение времени / Kroměříž - plynutí času (2012)
05. Леднице-валтицкий комплекс. Сияющий самоцвет / Lednicko-valtický areál - zářící drahokam (2012)
06. Кутна Гора. Монте-Карло Средневековья / Kutná Hora - Monte Carlo středověku
07. Церковь Святого Яна Непомуцкого. Тайна языка / Kostel sv. Jana Nepomuckého na Zelené hoře - tajemství jazyka (2012)
08. Литомышль. Кровавый роман / Litomyšl - krvavý román (2012)
09. Тршебич. Уникальность в множестве / Třebíč - jedinečnost mnohosti (2012)
10. Колонна Пресвятой Троицы в Оломоуце. Полнота веры / Sloup nejsvětější trojice v Olomouci - v plnosti víry (2012)
11. Вилла Тугендгат – сердце из оникса / Vila Tugendhat - srdce z onyxu (2012)
12. Прага. Разнообразие в единстве / Praha - rozmanitost v jednotě (2012)
13. Прага. Единство в разнообразии / Praha - jednota v rozmanitosti (2012)

MediaInfo

GeneralComplete name                  : F:\Коллекция памятников ЮНЕСКО на территории Чешской республики\01. Чешский Крумлов. От реки до небес.aviFormat                         : AVIFormat/Info                    : Audio Video InterleaveFile size                      : 382 MiBDuration                       : 25mn 52sOverall bit rate               : 2 062 Kbps
VideoID : 0Format : MPEG-4 VisualFormat profile : Advanced Simple@L5Format settings, BVOP : 2Format settings, QPel : NoFormat settings, GMC : No warppointsFormat settings, Matrix : Default (H.263)Codec ID : XVIDCodec ID/Hint : XviDDuration : 25mn 52sBit rate : 1 921 KbpsWidth : 704 pixelsHeight : 416 pixelsDisplay aspect ratio : 1.692Frame rate : 25.000 fpsColor space : YUVChroma subsampling : 4:2:0Bit depth : 8 bitsScan type : ProgressiveCompression mode : LossyBits/(Pixel*Frame) : 0.262Stream size : 356 MiB (93%)Writing library : XviD 64
AudioID : 1Format : MPEG AudioFormat version : Version 1Format profile : Layer 3Codec ID : 55Codec ID/Hint : MP3Duration : 25mn 52sSource duration : 25mn 52sBit rate mode : ConstantBit rate : 128 KbpsChannel(s) : 2 channelsSampling rate : 48.0 KHzCompression mode : LossyStream size : 23.7 MiB (6%)Alignment : Split accross interleavesInterleave, duration : 24 ms (0.60 video frame)
Другие мои раздачи: архитектура, недвижимость, живопись http://rutracker.org/forum/tracker.php?rid=8171303

Чтобы скачать этот контент, Вам необходимо:
1. Скачать и установить торрент-клиент [клик для Windows], (для мобильного найдите на Play Маркет).
2. Кликнуть по [Скачать]


Внимание.
Если проверка ВЫ НЕ РОБОТ - не работает, значит Вы используете устаревший браузер.
Установите актуальный браузер и повторно кликните по [Скачать]
Безопасность: торрент-клиент разрешён АВ Касперского.

[asmlocator.ru].t334917.torrent 
Торрент: Зарегистрирован [ 2017-03-30 04:55 ] · 24DB1B57A700EB6AD418C85D829EF5FE8362823F

Скачать .torrent

Скачать

20 KB

Статус: проверено
Скачан: 0 раз
Размер: 3.59 GB
terms.php
[Профиль] [ЛС]
Показать сообщения:    
Ответить на тему

Текущее время: 28-Фев 01:55

Часовой пояс: UTC ± 0



Вы не можете начинать темы
Вы не можете отвечать на сообщения
Вы не можете редактировать свои сообщения
Вы не можете удалять свои сообщения
Вы не можете голосовать в опросах
Вы не можете прикреплять файлы к сообщениям
Вы можете скачивать файлы
Верим фактам, а не вранью Путина! Факт, что Правительство ведёт Россию к истреблению.
Так как численность населения падает, даже не смотря на приток эмигрантов!
Русская нация вымирает и вырождается, смешиваясь с эмигрантами!
Факт, что военных и граждан предприятий заставляют голосовать за партию Единая Россия и Путина
ПОД СТРАХОМ УВОЛЬНЕНИЯ!
Нам не нужно Правительство, блокирующее личную жизнь, интернет, нарушающее сохранность данных.
Все эти действия финансируются за счёт народа!