«Непутевые заметки» с Дмитрием Крыловым [2017, Документальное кино, HDTV 1080i]

Reply to topic
DL-List and Torrent activity
Size:  9.71 GB   |    Registered:  2 years 4 months   |    Completed:  0 times

Seeder not seen: Never

 
   
 
 
Author Message

star21 ®

Gender: Female

Longevity: 3 years 8 months

Posts: 552050

Location: Екатеринбург

Post 14-Mar-2017 07:49

[Quote]

«Непутевые заметки» с Дмитрием Крыловым
Год выпуска: 2017
Страна: Россия
Жанр: Документальное кино
Продолжительность: ~00:15:00
Режиссер: Дмитрий Крылов
Описание: Телевизионный путеводитель по странам и континентам.
Авторская программа Дмитрия Крылова "Непутевые заметки" появилась на Первом канале Центрального Телевидения в начале 1991 года. Первый 4-х серийный фильм назывался "Непутевые заметки или ИЗ ЛОНДОНА С ЛЮБОВЬЮ". На фоне официоза международной тележурналистики "Непутевые заметки" сразу же привлекли к себе внимание. Зрителям импонировал субъективный и непредвзятый взгляд на жизнь Запада, временами наивный, иногда ироничный. Автор вовсе не выдавал себя за знатока заграничной жизни. Поэтому при просмотре у зрителей возникала иллюзия, что это они сами открывают для себя закрытые стороны жизни ДРУГОГО мира.
В течение 5-ти "Непутевые заметки" выходили периодически по мере появления новых материалов. После фильма о Лондоне вышли фильмы о Западном Берлине, о Средиземноморских круизах и прибрежных городах и странах – Стамбуле, Афинах, Мальте, Венеции, Барселоне, Риме, Неаполе, Генуе, Ницце, Сицилии. Затем у автора начался "американский" период – 12-серийный фильм "Путешествие с Соней в поисках Америки" (Ю.Флорида, Нью-Йорк и Бостон). Особое внимание зрителей привлек фильм о Дании, в котором помимо авторского "взрослого" взгляда на страну был представлен еще и детский взгляд шестилетнего мальчика Мити, сына автора. Потом к этому приему автор обращался еще несколько раз, вместе с сыном рассказывая о поездке на греческие острова, а также в "Дисней Уолд" в Орландо и о Карибском круизе.
С начала 1996 года "Непутевые заметки" стали выходить на Первом канале регулярно. За время своего существования съемочная группа программы "Непутевые заметки" побывала в различных уголках нашей планеты, а в 2002 году она добралась и до Северного Полюса.
Качество: HDTV 1080i
Формат: MPEG-TS
Видео кодек: H.264
Аудио кодек: АС3
Видео: MPEG4 Video (H264) 1920x1080, 25fps, ~10 Мбит/сек
Аудио: 384 Kbps : 6сн : 48,0 КГц
Все серии в раздаче имеют схожие технические характеристики.

Скриншоты

МИ

Общее
Идентификатор : 1 (0x1)
Полное имя : E:\Непутёвые заметки - 2017\Непутёвые заметки 2017-01-15_bySat.ts
Формат : MPEG-TS
Размер файла : 1,12 Гбайт
Продолжительность : 14 м.
Режим общего битрейта : Переменный
Общий поток : 11,1 Мбит/сек
Видео
Идентификатор : 205 (0xCD)
Идентификатор меню : 1 (0x1)
Формат : AVC
Формат/Информация : Advanced Video Codec
Профиль формата : High@L4.0
Параметр CABAC формата : Да
Параметр ReFrames формата : 4 кадра
Идентификатор кодека : 27
Продолжительность : 14 м.
Битрейт : 10,2 Мбит/сек
Ширина : 1920 пикселей
Высота : 1080 пикселей
Соотношение сторон : 16:9
Частота кадров : 25,000 кадров/сек
Цветовое пространство : YUV
Субдискретизация насыщенности : 4:2:0
Битовая глубина : 8 бит
Тип развёртки : Чересстрочная
Порядок развёртки : Верхнее поле первое
Бит/(Пиксели*Кадры) : 0.196
Размер потока : 1,03 Гбайт (92%)
Основные цвета : BT.709
Характеристики трансфера : BT.709
Коэффициенты матрицы : BT.709
colour_range : Limited
Аудио
Идентификатор : 405 (0x195)
Идентификатор меню : 1 (0x1)
Формат : AC-3
Формат/Информация : Audio Coding 3
Расширение режима : CM (complete main)
Параметр Endianness формата : Big
Идентификатор кодека : 6
Продолжительность : 14 м.
Вид битрейта : Постоянный
Битрейт : 384 Кбит/сек
Каналы : 6 каналов
Расположение каналов : Front: L C R, Side: L R, LFE
Частота : 48,0 КГц
Битовая глубина : 16 бит
Метод сжатия : С потерями
Размер потока : 39,7 Мбайт (3%)
Язык : Russian
Текст #1
Идентификатор : 505 (0x1F9)-100
Идентификатор меню : 1 (0x1)
Формат : Teletext
Язык : Russian
Текст #2
Идентификатор : 505 (0x1F9)-888
Идентификатор меню : 1 (0x1)
Формат : Teletext Subtitle
Язык : Russian
Язык, дополнительно : For hearing impaired people
Меню
Идентификатор : 256 (0x100)
Идентификатор меню : 1 (0x1)
Продолжительность : 14 м.
Список : 205 (0xCD) (AVC) / 405 (0x195) (AC-3, Russian) / 505 (0x1F9) ()
Язык : / Russian

содержание

Непутёвые заметки 2017-01-15_bySat.ts - Загреб (Хорватия)
Непутёвые заметки 2017-01-22_bySat.ts - Белоку́риха 2 — в Алтайском крае
Непутёвые заметки 2017-01-29_bySat.ts - Корея и корейцы
Непутёвые заметки 2017-02-05_bySat.ts - Южная Корея
Непутёвые заметки 2017-02-12_bySat.ts - Короткое путешествие по Чехии
Непутёвые заметки 2017-02-19_bySat.ts - Прага
Непутёвые заметки 2017-02-26_bySat.ts - Лечебные здравницы Хорватии и Чехии
Непутёвые заметки 2017-03-05_bySat.ts - Швейцария и ...
Непутёвые заметки 2017-03-12_bySat.ts - Швейцария
Специально для раздачи от Lexor .!

To download the content you need:
1. Download and install torrent client [for Windows] or for mobile system
2. Click on [Download]
Attention.
If the test YOU are NOT a ROBOT - does not work, then You are using an outdated browser.
Install the current browser and click on [Download]
Security: torrent client is allowed by Kaspersky.

[asmlocator.ru].t319514.torrent 
Torrent: Registered [ 2017-03-14 07:45 ] · ADA4DDB51BF701BA4B5A7B00C24E3F70939451CD

Download .torrent

Download

50 KB

Status: checked
Completed: 0 times
Size: 9.71 GB
terms.php
[Profile] [PM]
Display posts:    
Reply to topic

Current time is: 17-Jul 05:40

All times are UTC ± 0



You cannot post new topics in this forum
You cannot reply to topics in this forum
You cannot edit your posts in this forum
You cannot delete your posts in this forum
You cannot vote in polls in this forum
You cannot attach files in this forum
You can download files in this forum