Покемон: Гиратина и Небесный Воин (Фильм 11) / Pokemon The Movie 11: Giratina and the Sky Warrior [Movie] [Без хардсаба] [RUS(int)] [2008, детский, комедия, приключения, фэнтези., BDRip][HWP][Американская версия]

Ответить на тему
Статистика раздачи
Размер:  1,29 GB   |    Зарегистрирован:  2 года 6 месяцев   |    Скачан:  0 раз

Полного источника не было: Никогда

 
   
 
 
Автор Сообщение

star21 ®

Пол: Женский

Стаж: 3 года 10 месяцев

Сообщений: 551989

Откуда: Екатеринбург

Создавать темы 09-Мар-2017 04:46

[Цитировать]

Покемон: Фильм 11 - Гиратина и Небесный Воин-Pokemon: The Movie 11 - Giratina and the Sky Warrior-Страна: Япония / США
Год выпуска: 19 июля 2008 г.
Жанр: детский, комедия, приключения, фэнтези.
Тип: Movie
Продолжительность: 96 мин
Режиссер: Кунихико Юяма-Описание: Гиратина – одинокий Покемон, живущий в Параллельном Мире, который существует бок о бок с нашим. Когда Диагла и Палкия тревожат пространство и время, он затягивает Диаглу в свой мир. Они устраивают битву, которую останавливает крохотный Шеймин – Покемон благодарности!(c)Pokemon.com-
Рип BluRay и iTunes, Сборка американского видеоряда, Сведение аудио - LightEssence-Выбор качества: | 1080p | 720p | Бытовой плеер [HWP]-Качество: BDRip | Тип релиза: Без хардсаба | Формат видео: AVI
Релиз/Автор рипа: LightEssence
Совместимость с бытовыми плеерами: Да
Видео: XviD(8bit), 704x396, ~1715 kbps, 23,976 fps(NTSC)
Аудио: MPEG Layer 3, 192kbps, 48kHz, 2ch Язык Русский (в составе контейнера) ; Озвучка: [DUB] - Профессиональный (Многоголосый, Дублированный) [телеканал JETIX]

Подробные тех. данные

GeneralComplete name               : F:\Покемон\Pokemon the Movie [HWP]\11.Pokemon the Movie 11 - Giratina and the Sky Warrior [BDRip][HWP][LightEssence].aviFormat                      : AVIFormat/Info                 : Audio Video InterleaveFile size                   : 1.29 GiBDuration                    : 1 h 36 minOverall bit rate            : 1 917 kb/sWriting library             : VirtualDub build 35491/release
VideoID : 0Format : MPEG-4 VisualFormat profile : Advanced Simple@L5Format settings, BVOP : 2Format settings, QPel : NoFormat settings, GMC : No warppointsFormat settings, Matrix : Default (H.263)Muxing mode : Packed bitstreamCodec ID : XVIDCodec ID/Hint : XviDDuration : 1 h 36 minBit rate : 1 715 kb/sWidth : 704 pixelsHeight : 396 pixelsDisplay aspect ratio : 16:9Frame rate : 23.976 (23976/1000) FPSColor space : YUVChroma subsampling : 4:2:0Bit depth : 8 bitsScan type : ProgressiveCompression mode : LossyBits/(Pixel*Frame) : 0.257Stream size : 1.15 GiB (89%)Writing library : XviD 1.2.1 (UTC 2008-12-04)
AudioID : 1Format : MPEG AudioFormat version : Version 1Format profile : Layer 3Mode : Joint stereoMode extension : MS StereoCodec ID : 55Codec ID/Hint : MP3Duration : 1 h 36 minBit rate mode : ConstantBit rate : 192 kb/sChannel(s) : 2 channelsSampling rate : 48.0 kHzCompression mode : LossyStream size : 132 MiB (10%)Alignment : Split accross interleavesInterleave, duration : 42 ms (1.00 video frame)Interleave, preload duratio : 500 ms

Скриншоты

Отличия

DVDRip - TimberManiacs [DUB] [Slink] - BDRip, Чистый звук

Список Раздач от LightEssence

Полнометражные фильмы Покемон / Pokemon the Movie

Полнометражные фильмы Покемон / Pokemon the Movie-[01] Покемон: Фильм Первый - Мьюту Наносит Ответный Удар / Pokemon: The First Movie - Mewtwo Strikes Back (Digitally Remastered) [BDRip] | 1080p | 720p |-[02] Покемон 2000 - Сила избранного / Pokemon: The Movie 2000 - The power of One (Digitally Remastered) [BDRip] | 1080p | 720p |-[03] Покемон 3 - Заклятие Аноунов / Pokemon: The Movie 3 - The Spell of Unown (Digitally Remastered) [BDRip] | 1080p | 720p |-[04] Покемон Навсегда - Селеби: Голос Леса / Pokemon 4ever - Celebi: Voice of the Forest (Digitally Remastered) [iTns-DL] | 1080p | 720p | Бытовой плеер [HWP] |-[05],[06],[07] - будут выпущены позже-[08] Покемон: Фильм 8 - Лукарио и Тайна Мью / Pokemon The Movie 8 - Lucario and the Mystery of Mew [BDRip] | 1080p | 720p |-[09] Покемон: Фильм 9 - Покемон Рейнджер и Храм Моря / Pokemon The Movie 9 - Pokemon Ranger and the Temple of the Sea [BDRip] | 1080p | 720p | Бытовой плеер [HWP] |-[10] - будут выпущены позже-[11] Покемон: Фильм 11 - Гиратина и Небесный Воин / Pokemon The Movie 11 - Giratina and the Sky Warrior [BDRip] | 1080p | 720p | Бытовой плеер [HWP] |-[12] Покемон: Фильм 12 - Аркеус и Драгоценный Камень Жизни / Pokemon The Movie 12 - Arceus and the Jewel of Life [BDRip] | 1080p | 720p | Бытовой плеер [HWP] |-[13] - будут выпущены позже-[14b] Покемон: Фильм 14 - Черное - Виктини и Реширам / Pokemon The Movie 14 - Black - Victini and Reshiram [BDRip] | 1080p | 720p | Бытовой плеер [HWP] |-[14w] Покемон: Фильм 14 - Белое - Виктини и Зекром / Pokemon The Movie 14 - White - Victini and Zekrom [BDRip] | 1080p | 720p | Бытовой плеер [HWP] |-[15] - будут выпущены позже-[16] Покемон: Фильм 16 - Дженесект и возрождённая легенда / Pokemon The Movie 16 - Genesect and the Legend Awakened [BDRip] | 1080p | 720p | Бытовой плеер [HWP] |-[17] - будет выпущен позже-[18] Покемон: Фильм 18 - Хуппа и вековое противостояние / Pokemon The Movie 18 - Hoopa and the Clash of Ages [BDRip] | 1080p | 720p | Бытовой плеер [HWP] |-

Покемон Сериал / Pokemon the Series

Покемон Сериал / Pokemon the Series-[03] Покемон: Путешествие в Джото (Сезон 3) / Pokemon: The Johto Journeys (Season 3) [DVDRip x264] | 1-10 серии (119-128) |-[06] Покемон: Новое Поколение (Сезон 6) / Pokemon: Advanced (Season 6) [WEBRip x264] | 1-40 серии (277-316) |
[07] Покемон: Новое Испытание (Сезон 7) / Pokemon: Advanced Challenge (Season 7) [WEBRip x264] | 41-92 серии (317-368) |
[08] Покемон: Новое Сражение (Сезон 8) / Pokemon: Advanced Battle (Season 8) [WEBRip x264] | 93-100,102-120,122-146 серии (369-376,378-396,398-422) |
[09] Покемон: Боевой Рубеж (Сезон 9) / Pokemon: Battle Frontier (Season 9) [WEBRip x264] | 147-193 серии (423-469) |

Чтобы скачать этот контент, Вам необходимо:
1. Скачать и установить торрент-клиент [клик для Windows], (для мобильного найдите на Play Маркет).
2. Кликнуть по [Скачать]


Внимание.
Если проверка ВЫ НЕ РОБОТ - не работает, значит Вы используете устаревший браузер.
Установите актуальный браузер и повторно кликните по [Скачать]
Безопасность: торрент-клиент разрешён АВ Касперского.

[asmlocator.ru].t313628.torrent 
Торрент: Зарегистрирован [ 2017-03-09 04:45 ] · 884C56BC12B68D78B5B7A70D7941FC155CE3AD31

Скачать .torrent

Скачать

13 KB

Статус: проверено
Скачан: 0 раз
Размер: 1,29 GB
terms.php
[Профиль] [ЛС]
Показать сообщения:    
Ответить на тему

Текущее время: 18-Сен 02:06

Часовой пояс: UTC ± 0



Вы не можете начинать темы
Вы не можете отвечать на сообщения
Вы не можете редактировать свои сообщения
Вы не можете удалять свои сообщения
Вы не можете голосовать в опросах
Вы не можете прикреплять файлы к сообщениям
Вы можете скачивать файлы
Верим фактам, а не вранью Путина! Факт, что Правительство ведёт Россию к истреблению.
Так как численность населения падает, даже не смотря на приток эмигрантов!
Русская нация вымирает и вырождается, смешиваясь с эмигрантами!
Факт, что военных и граждан предприятий заставляют голосовать за партию Единая Россия и Путина
ПОД СТРАХОМ УВОЛЬНЕНИЯ!
Нам не нужно Правительство, блокирующее личную жизнь, интернет, нарушающее сохранность данных.
Все эти действия финансируются за счёт народа!