Наводнение: Кто спасет наших детей? / The Flood: Who Will Save Our Children? (Крис Томсон / Chris Thomson) [1993, США, Австралия, Драма, SATRip] MVO

Ответить на тему
Статистика раздачи
Размер:  1,45 GB   |    Зарегистрирован:  1 год 1 месяц   |    Скачан:  0 раз

Полного источника не было: Никогда

 
   
 
 
Автор Сообщение

star21 ®

Пол: Не указан

Стаж: 1 год 2 месяца

Сообщений: 300211

Создавать темы 02-Дек-2015 05:42

[Цитировать]

Наводнение: Кто спасет наших детей? / The Flood: Who Will Save Our Children?
Страна: США , Австралия
Жанр: Драма
Год выпуска: 1993
Продолжительность: 1:28:44
Перевод: Профессиональный (многоголосый закадровый)
Cубтитры: нет
Режиссер: Крис Томсон / Chris Thomson
В ролях: Дэвид Лэшер, Рене О’Коннор, Роберт Маммоне, Джеки Вудборн, Тим Илстон, Kelly Rummery, Филлип Хинтон, Дэвид Франклин, Марк Фейролл, Дон Хелберт, Kim Krejus, Джо Спано, Скотт Майкл Кэмпбелл, Норм Скэггз, Эми Ван Нострэнд, Кэролайн Джиллмер, Джером Элерс, Эшли Миллер, Кейт Худ, Блэйн Уивер, Питер Хоскин, Холли Брисли, Майкл А. Гурджиан, Ванесса Корам, Лиза Риффел, Дерек Амер
Описание: В христианском молодежном лагере заканчивается заезд. Подростки собираются разъезжаться по домам. Во время отъезда начинается сильный дождь. Горная река резко наполняется водой, проезд через которую усложняется, и автобус с детьми застревает в ней. Сильный поток воды переворачивает автобус и уносит детей по течению.
Доп. информация: Дорога синхронизирована из раздачи Asyuta
Сэмпл: https://www.sendspace.com/file/61koji
Качество видео: SATRip
Формат видео: AVI
Видео: XviD MPEG-4 , 640x480 (1.33:1) ,25.000 fps , 2 142 Kbps
Аудио: AC3 , 48 kHz , 192.00 kbps avg , 2/0 (L,R) ch

MediaInfo

Complete name Наводнение Кто спасет наших детей 1993.avi
Format : AVI
Format/Info : Audio Video Interleave
File size : 1.45 GiB
Duration : 1h 28mn
Overall bit rate : 2 344 Kbps
Writing application : VirtualDubMod 1.5.10.3 | www.virtualdub-fr.org || (build 2550/release)
Writing library : VirtualDub build 35491/release
Video
ID : 0
Format : MPEG-4 Visual
Format profile : Advanced Simple@L5
Format settings, BVOP : 1
Format settings, QPel : No
Format settings, GMC : No warppoints
Format settings, Matrix : Default (MPEG)
Codec ID : XVID
Codec ID/Hint : XviD
Duration : 1h 28mn
Bit rate : 2 142 Kbps
Width : 640 pixels
Height : 480 pixels
Display aspect ratio : 4:3
Frame rate : 25.000 fps
Color space : YUV
Chroma subsampling : 4:2:0
Bit depth : 8 bits
Scan type : Progressive
Compression mode : Lossy
Bits/(Pixel*Frame) : 0.279
Stream size : 1.33 GiB (91%)
Writing library : XviD 1.2.1 (UTC 2008-12-04)
Audio
ID : 1
Format : AC-3
Format/Info : Audio Coding 3
Mode extension : CM (complete main)
Format settings, Endianness : Big
Codec ID : 2000
Duration : 1h 28mn
Bit rate mode : Constant
Bit rate : 192 Kbps
Channel(s) : 2 channels
Channel positions : Front: L R
Sampling rate : 48.0 KHz
Compression mode : Lossy
Stream size : 122 MiB (8%)
Alignment : Aligned on interleaves
Interleave, duration : 40 ms (1.00 video frame)
Interleave, preload duratio : 512 ms

Если ваш рейтинг упадет ниже 0,3, вы не сможете скачивать торренты! Подробнее о рейтинге.

[asmlocator.ru].t4848.torrent 
Торрент: Зарегистрирован [ 2015-12-02 05:40 ] · 1CFDCE61C6F80FFA15C53E79E718FA284067724C

Скачать .torrent

Скачать

15 KB

Статус: проверено
Скачан: 0 раз
Размер: 1,45 GB
terms.php
[Профиль] [ЛС]

djorh

Пол: Не указан

Стаж: 15 дней

Сообщений: 1

Создавать темы 05-Янв-2017 18:52 (спустя 1 год 1 месяц)

[Цитировать]

Привет!! А есть кому раздать фильм ?
[Профиль] [ЛС]

admin

Пол: Женский

Стаж: 1 год 2 месяца

Сообщений: 100

Откуда: USSR, Tyumen

Создавать темы 05-Янв-2017 19:01 (спустя 8 минут)

[Цитировать]

Тока ждите как кто-то раскроется.
[Профиль] [ЛС]
Показать сообщения:    
Ответить на тему

Текущее время: 21-Янв 15:25

Часовой пояс: UTC ± 0



Вы не можете начинать темы
Вы не можете отвечать на сообщения
Вы не можете редактировать свои сообщения
Вы не можете удалять свои сообщения
Вы не можете голосовать в опросах
Вы не можете прикреплять файлы к сообщениям
Вы можете скачивать файлы