Дети Шпионов: Трилогия / Spy Kids Trilogy (Роберт Родригес / Robert Rodriguez) [2001, 2002 г., 2003 г., Боевик, Комедия, Приключения, Семейный, Фантастика, HDRip] Dub

Ответить на тему
Статистика раздачи
Размер:  2,18 GB   |    Зарегистрирован:  9 месяцев 15 дней   |    Скачан:  0 раз

Полного источника не было: Никогда

 
   
 
 
Автор Сообщение

star21 ®

Пол: Не указан

Стаж: 1 год 11 месяцев

Сообщений: 355767

Создавать темы 05-Янв-2017 17:05

[Цитировать]

Дети Шпионов: Трилогия / Spy Kids Trilogy Дети Шпионов / Spy Kids Год выпуска: 2001
Страна: США
Жанр: Боевик, Комедия, Приключения, Семейный, Фантастика
Продолжительность: 01:30:50
Перевод: Профессиональный (полное дублирование)
Субтитры: нет
Режиссер: Роберт Родригес / Robert Rodriguez
В ролях: Антонио Бандерас /Antonio Banderas/, Карла Гуджино /Carla Gugino/, Элан Камминг /Alan Cumming/,Алекса Вега /Alexa Vega/, Дэрил Сабара /Daryl Sabara/, Тони Шэлхоуб /Tony Shalhoub/, Роберт Патрик /Robert Patrick/
Описание: Два самых крутых шпиона в мире: Грегорио Кортес и Ингрид, имели одно и то же секретное задание — уничтожить друг друга. Но личная встреча не принесла им ничего хорошего: они поженились и завязали со своим ремеслом… Через несколько лет исчезновение семерых спецагентов вынуждает их снова вернуться в игру. Причиной послужило то, что их бывшие коллеги, самые крутые профессионалы, начали исчезать один за другим.
Кортесы вновь нужны агентству, которое хочет, чтобы они раскрыли секреты некоего Пальчика, формирующего армию из детей-роботов. Участь исчезновения постигает и супругов Кортесов, их похищает коварный злодей. Теперь судьба пленников зависит от того, смогут ли их дети правильно распорядиться всеми новейшими сверхсекретными шпионскими штучками из арсенала легендарных родителей.
Размер: 1/6 DVD
Исходник: BDRip 1080p
Качество: HDRip
Формат: AVI
Видео: 656x352 (1.86:1), 23.976 fps, XviD build 62 ~1008 kbps avg, 0.18 bit/pixel
Аудио : 48 kHz, MPEG Layer 3, 2 ch, ~128.00 kbps avg

Модераторам

Мой коллега Smile дал согласие на поглощение его рипа http://rutracker.org/forum/viewtopic.php?t=3679766 моим паком без сравнения скриншотов

Скриншоты

MI

General
Complete name : D:\Торренты\Spy Kids.1-3.HDRip.R.G.Torrents.Ru_Drek\Spy Kids.HDRip.R.G.Torrents.Ru_Drek.avi
Format : AVI
Format/Info : Audio Video Interleave
File size : 744 MiB
Duration : 1h 30mn
Overall bit rate : 1 145 Kbps
Writing application : VirtualDubModRus 1.5.10.2 (build 2542/release)
Writing library : VirtualDubMod build 2542/release
Video
ID : 0
Format : MPEG-4 Visual
Format profile : Advanced Simple@L5
Format settings, BVOP : 1
Format settings, QPel : No
Format settings, GMC : No warppoints
Format settings, Matrix : Custom
Codec ID : XVID
Codec ID/Hint : XviD
Duration : 1h 30mn
Bit rate : 1 008 Kbps
Width : 656 pixels
Height : 352 pixels
Display aspect ratio : 1.864
Frame rate : 23.976 fps
Color space : YUV
Chroma subsampling : 4:2:0
Bit depth : 8 bits
Scan type : Progressive
Compression mode : Lossy
Bits/(Pixel*Frame) : 0.182
Stream size : 655 MiB (88%)
Writing library : XviD 62
Audio
ID : 1
Format : MPEG Audio
Format version : Version 1
Format profile : Layer 3
Codec ID : 55
Codec ID/Hint : MP3
Duration : 1h 30mn
Bit rate mode : Constant
Bit rate : 128 Kbps
Channel(s) : 2 channels
Sampling rate : 48.0 KHz
Compression mode : Lossy
Stream size : 83.2 MiB (11%)
Alignment : Aligned on interleaves
Interleave, duration : 42 ms (1.00 video frame)
Interleave, preload duration : 504 ms
Writing library : LAME3.98r
Encoding settings : -m s -V 4 -q 2 -lowpass 17 -b 128
Дети шпионов 2: Остров несбывшихся надежд / Spy Kids 2: Island of Lost Dreams Год выпуска: 2002
Страна: США
Жанр: Боевик, Комедия, Приключения, Семейный, Фантастика
Продолжительность: 01:40:17
Перевод: Профессиональный (полное дублирование)
Субтитры: нет
Режиссер: Роберт Родригес / Robert Rodriguez
В ролях: Антонио Бандерас /Antonio Banderas/, Карла Гуджино /Carla Gugino/, Элан Камминг /Alan Cumming/,Алекса Вега /Alexa Vega/, Дэрил Сабара /Daryl Sabara/, Тони Шэлхоуб /Tony Shalhoub/, Роберт Патрик /Robert Patrick/
Описание: Джуни и его старшая сестра Кармен еще предыдущими своими приключениями доказали, что они не только могут помогать своим родителям-шпионам, но и могут самостоятельно справляться с делами, достойными настоящих шпионов. На этот раз не их родителям, Грегорио и Ингрид, а самим Джуни и Кармен предстоит выполнить новое задание.
Они отправляются на таинственный остров, где один ученый-изобретатель создает сверхъестественные существа. Джуни и Кармен должны остановить безумного злодея, однако в этом задании у них есть конкуренты — брат и сестра Гари и Герти. У этих двух конкурирующих шпионских дуэтов одна цель — найти и уничтожить устройство, которое может нанести непоправимый вред всему миру.
Это задание оказывается слишком сложным для юных шпионов, которым на помощь приходят их родители и дедушка с бабушкой.
Размер: 1/6 DVD
Исходник: BDRip 1080p
Качество: HDRip
Формат: AVI
Видео: 656x352 (1.86:1), 23.976 fps, XviD build 62 ~897 kbps avg, 0.16 bit/pixel
Аудио : 48 kHz, MPEG Layer 3, 2 ch, ~128.00 kbps avg

Скриншоты

MI

General
Complete name : D:\Торренты\Spy Kids.1-3.HDRip.R.G.Torrents.Ru_Drek\Spy Kids 2 Island of Lost Dreams.HDRip.R.G.Torrents.Ru_Drek.avi
Format : AVI
Format/Info : Audio Video Interleave
File size : 742 MiB
Duration : 1h 40mn
Overall bit rate : 1 035 Kbps
Writing application : VirtualDubModRus 1.5.10.2 (build 2542/release)
Writing library : VirtualDubMod build 2542/release
Video
ID : 0
Format : MPEG-4 Visual
Format profile : Advanced Simple@L5
Format settings, BVOP : 1
Format settings, QPel : No
Format settings, GMC : No warppoints
Format settings, Matrix : Custom
Codec ID : XVID
Codec ID/Hint : XviD
Duration : 1h 40mn
Bit rate : 898 Kbps
Width : 656 pixels
Height : 352 pixels
Display aspect ratio : 1.864
Frame rate : 23.976 fps
Color space : YUV
Chroma subsampling : 4:2:0
Bit depth : 8 bits
Scan type : Progressive
Compression mode : Lossy
Bits/(Pixel*Frame) : 0.162
Stream size : 644 MiB (87%)
Writing library : XviD 62
Audio
ID : 1
Format : MPEG Audio
Format version : Version 1
Format profile : Layer 3
Codec ID : 55
Codec ID/Hint : MP3
Duration : 1h 40mn
Bit rate mode : Constant
Bit rate : 128 Kbps
Channel(s) : 2 channels
Sampling rate : 48.0 KHz
Compression mode : Lossy
Stream size : 91.8 MiB (12%)
Alignment : Aligned on interleaves
Interleave, duration : 42 ms (1.00 video frame)
Interleave, preload duration : 504 ms
Writing library : LAME3.98r
Encoding settings : -m s -V 4 -q 2 -lowpass 17 -b 128
Дети шпионов 3: Игра окончена / Spy Kids 3: Game Over Год выпуска: 2003
Страна: США
Жанр: Боевик, Комедия, Приключения, Семейный, Фантастика
Продолжительность: 01:22:36
Перевод: Профессиональный (полное дублирование)
Субтитры: нет
Режиссер: Роберт Родригес / Robert Rodriguez
В ролях: Антонио Бандерас/Antonio Banderas/, Карла Гуджино/Carla Gugino/, Алекса Вега/Alexa Vega/, Дэрил Сабара/Daryl Sabara/, Рикардо Монтальбан/Ricardo Montalban/, Холланд Тэйлор/Holland Taylor/, Сильвестр Сталлоне/Sylvester Stallone/, Майк Джадж/Mike Judge/, Сэлма Хайек/Salma Hayek/
Описание: Шпионы становятся старше, но и враги — все сильнее и изощреннее. Теперь им предстоит вступить в схватку с самим Сильвестром Сталлоне, чтобы спасти не только свои жизни, но и целый мир…
Несовершеннолетние агенты Джуни и Кармен Кортез отправляются на выполнение нового задания. На этот раз их ждет путешествие по виртуальному миру 3-D видеоигры, разработанной для того, чтобы существа, населяющие ее явились в реальный мир.
Дочь шпионов Кармен попалась в сети компьютерной игры, созданной зловещим Мастером Игрушек. Теперь ее брат должен спасти сестру, а заодно и весь мир. И помогать ему в этом будут его родители!
Размер: 1/6 DVD
Исходник: BDRip 1080p
Качество: HDRip
Формат: AVI
Видео: 656x352 (1.86:1), 23.976 fps, XviD build 62 ~1121 kbps avg, 0.20 bit/pixel
Аудио : 48 kHz, MPEG Layer 3, 2 ch, ~128.00 kbps avg

Скриншоты

MI

General
Complete name : D:\Торренты\Spy Kids.1-3.HDRip.R.G.Torrents.Ru_Drek\Spy Kids 3 Game Over.HDRip.R.G.Torrents.Ru_Drek.avi
Format : AVI
Format/Info : Audio Video Interleave
File size : 744 MiB
Duration : 1h 22mn
Overall bit rate : 1 259 Kbps
Writing application : VirtualDubModRus 1.5.10.2 (build 2542/release)
Writing library : VirtualDubMod build 2542/release
Video
ID : 0
Format : MPEG-4 Visual
Format profile : Advanced Simple@L5
Format settings, BVOP : 1
Format settings, QPel : No
Format settings, GMC : No warppoints
Format settings, Matrix : Custom
Codec ID : XVID
Codec ID/Hint : XviD
Duration : 1h 22mn
Bit rate : 1 122 Kbps
Width : 656 pixels
Height : 352 pixels
Display aspect ratio : 1.864
Frame rate : 23.976 fps
Color space : YUV
Chroma subsampling : 4:2:0
Bit depth : 8 bits
Scan type : Progressive
Compression mode : Lossy
Bits/(Pixel*Frame) : 0.203
Stream size : 663 MiB (89%)
Writing library : XviD 62
Audio
ID : 1
Format : MPEG Audio
Format version : Version 1
Format profile : Layer 3
Codec ID : 55
Codec ID/Hint : MP3
Duration : 1h 22mn
Bit rate mode : Constant
Bit rate : 128 Kbps
Channel(s) : 2 channels
Sampling rate : 48.0 KHz
Compression mode : Lossy
Stream size : 75.6 MiB (10%)
Alignment : Aligned on interleaves
Interleave, duration : 42 ms (1.00 video frame)
Interleave, preload duration : 504 ms
Writing library : LAME3.98r
Encoding settings : -m s -V 4 -q 2 -lowpass 17 -b 128
Группа желает всем приятного просмотра!

Для скачки контента: [Установить программу-клиент] и кликнуть по - Скачать

[asmlocator.ru].t300957.torrent 
Торрент: Зарегистрирован [ 2017-01-05 17:05 ] · 7D1EA2048CF9823106FE7CF79642807921F7DCA5

Скачать .torrent

Скачать

23 KB

Статус: проверено
Скачан: 0 раз
Размер: 2,18 GB
terms.php
[Профиль] [ЛС]
Показать сообщения:    
Ответить на тему

Текущее время: 21-Окт 02:47

Часовой пояс: UTC ± 0



Вы не можете начинать темы
Вы не можете отвечать на сообщения
Вы не можете редактировать свои сообщения
Вы не можете удалять свои сообщения
Вы не можете голосовать в опросах
Вы не можете прикреплять файлы к сообщениям
Вы можете скачивать файлы