Сексуальные приключения трех мушкетеров / Die Sex-Abenteuer der drei Musketiere / The Sex-Adventures of the three Musketeers (Эрвин С Дитрих / Erwin C. Dietrich) [1971, Германия, комедия, приключения, эротика, DVDRip] AVO (Андрей Дольский)

Ответить на тему
Статистика раздачи
Размер:  744 MB   |    Зарегистрирован:  11 месяцев 11 дней   |    Скачан:  0 раз

Полного источника не было: Никогда

 
   
 
 
Автор Сообщение

star21 ®

Пол: Не указан

Стаж: 2 года 1 месяц

Сообщений: 354209

Создавать темы 05-Янв-2017 13:45

[Цитировать]

Сексуальные приключения трех мушкетеров / Die Sex-Abenteuer der drei Musketiere / The Sex-Adventures of the three Musketeers
Страна: Германия
Жанр: комедия, приключения, эротика
Год выпуска: 1971
Продолжительность: 01:17:56
Перевод: Авторский (одноголосый закадровый) Андрей Дольский
Cубтитры: нет
Режиссер: Эрвин С Дитрих / Erwin C. Dietrich
В ролях: Питер Граф, Ингрид Штегер, Надя Пилар, Ли Хубер, Рико Питер, Альфред Кодона, Лони Грюнвольд, Ивонн Соллин, Рафаэль Бриттен, Ахим Хаммер, Йюрг Корэ, Томас Лариш
Описание: Эротические похождения легендарных героев романа Александра Дюма "Три Мушкетера" в прочтении Erwin C. Dietrich..
Сэмпл: https://yadi.sk/i/wBNFI1ZH35V87x
Качество видео: DVDRip (Исходник - DVD Video)
Формат видео: AVI
Видео: XviD 73, 656x368, (16:9), 25,000 fps, 1134 Кбит/с
Аудио: Русский (АС3, 2 ch (Front: L R), 48,0 KHz, 192 Kbps)

MediaInfo

Общее
Полное имя : F:\Видеофильмы\В и д е о\Сексуальные приключения трех мушкетеров (комедия 1971 год).avi
Формат : AVI
Формат/Информация : Audio Video Interleave
Размер файла : 744 Мбайт
Продолжительность : 1 ч. 17 м.
Общий поток : 1335 Кбит/сек
Программа кодирования : VirtualDubMod 1.5.10.3 | www.virtualdub-fr.org || (build 2550/release)
Библиотека кодирования : VirtualDubMod build 2550/release
Видео
Идентификатор : 0
Формат : MPEG-4 Visual
Профиль формата : Advanced Simple@L5
Параметр BVOP формата : 2
Параметр QPel формата : Нет
Параметр GMC формата : Без точки перехода
Параметр матрицы формата : Выборочная
Идентификатор кодека : XVID
Идентификатор кодека/Подсказка : XviD
Продолжительность : 1 ч. 17 м.
Битрейт : 1134 Кбит/сек
Ширина : 656 пикселей
Высота : 368 пикселей
Соотношение сторон : 16:9
Частота кадров : 25,000 кадров/сек
Цветовое пространство : YUV
Субдискретизация насыщенности : 4:2:0
Битовая глубина : 8 бит
Тип развёртки : Прогрессивная
Метод сжатия : С потерями
Бит/(Пиксели*Кадры) : 0.188
Размер потока : 632 Мбайт (85%)
Библиотека кодирования : XviD 73
Аудио
Идентификатор : 1
Формат : AC-3
Формат/Информация : Audio Coding 3
Расширение режима : CM (complete main)
Параметр Endianness формата : Big
Идентификатор кодека : 2000
Продолжительность : 1 ч. 17 м.
Вид битрейта : Постоянный
Битрейт : 192 Кбит/сек
Каналы : 2 канала
Расположение каналов : Front: L R
Частота : 48,0 КГц
Частота кадров : 31,250 кадров/сек (1536 spf)
Метод сжатия : С потерями
Размер потока : 107 Мбайт (14%)
Выравнивание : Разделение по промежуткам
Продолжительность промежутка : 40 мс. (1,00 видеокадр)
Время предзагрузки промежутка : 500 мс.

Скриншот c названием фильма

Скриншоты

Для скачки контента: [Установить программу-клиент] и кликнуть по - Скачать

[asmlocator.ru].t300857.torrent 
Торрент: Зарегистрирован [ 2017-01-05 13:45 ] · 6361E3CBB45122A08C6DFE94A40A629E6CE653B0

Скачать .torrent

Скачать

15 KB

Статус: проверено
Скачан: 0 раз
Размер: 744 MB
terms.php
[Профиль] [ЛС]
Показать сообщения:    
Ответить на тему

Текущее время: 17-Дек 11:58

Часовой пояс: UTC ± 0



Вы не можете начинать темы
Вы не можете отвечать на сообщения
Вы не можете редактировать свои сообщения
Вы не можете удалять свои сообщения
Вы не можете голосовать в опросах
Вы не можете прикреплять файлы к сообщениям
Вы можете скачивать файлы