Дальняя Комната / Far Room (Антон Дубовский) [2010, Короткометражка, авторское кино, DVDRip]

Ответить на тему
Статистика раздачи
Размер:  134 MB   |    Зарегистрирован:  4 месяца 23 дня   |    Скачан:  0 раз

Полного источника не было: Никогда

 
   
 
 
Автор Сообщение

star21 ®

Пол: Не указан

Стаж: 1 год 6 месяцев

Сообщений: 299355

Создавать темы 05-Янв-2017 08:45

[Цитировать]

Дальняя Комната / Far Room
Авторская Раздача
Жанр: Короткометражка, авторское кино
Год выпуска: 2010
Продолжительность: 00:08:43
Режиссёр: Антон Дубовский
В ролях: Мария Кузнецова, Павел Желтышев, Артём Марков
Качество видео: DVDRip
Формат видео: AVI
Видео: Xvid 600x480 25fps 1827kbps [V: mpeg4 advanced simple profile, yuv420p, 600x480, 1827 kb/s]
Аудио: rus, MP3 44100Hz stereo 320kbps [A: mp3, 44100 Hz, stereo, 320 kb/s]
Сэмпл

Описание

Фильм про девушку по имени Рита, которая потеряла своего мужа. С помощью экстрасенса она хочет поговорить с ним, но не всё так просто. Мирный диалог превращается в исповедь с неожиданным концом.

Дополнительная информация

Студенческий фильм по рассказу Евгения Хака "Дальняя комната". Автор сценария и режиссер-постановщик Антон Дубовский (Siberia Land Studio). Музыка Альберт Заигров (R.K.B. Studio 13). Снято в 2010 году в Омске. Формат картинки 16:9 в квадрате 4:3. Других вариантов не осталось. Другая версия версия с не оригинальным саундтреком доступна здесь. Саундтрек можно скачать здесь.

MediaInfo

General
Complete name : Far Room (2010).avi
Format : AVI
Format/Info : Audio Video Interleave
File size : 134 MiB
Duration : 8 min 42 s
Overall bit rate : 2 157 kb/s
Writing library : VirtualDub build 35491/release
Video
ID : 0
Format : MPEG-4 Visual
Format profile : Advanced Simple@L5
Format settings, BVOP : 2
Format settings, QPel : No
Format settings, GMC : No warppoints
Format settings, Matrix : Default (H.263)
Muxing mode : Packed bitstream
Codec ID : XVID
Codec ID/Hint : XviD
Duration : 8 min 42 s
Bit rate : 1 827 kb/s
Width : 600 pixels
Height : 480 pixels
Display aspect ratio : 5:4
Frame rate : 25.000 FPS
Color space : YUV
Chroma subsampling : 4:2:0
Bit depth : 8 bits
Scan type : Progressive
Compression mode : Lossy
Bits/(Pixel*Frame) : 0.254
Stream size : 114 MiB (85%)
Writing library : XviD 73
Audio
ID : 1
Format : MPEG Audio
Format version : Version 1
Format profile : Layer 3
Mode : Joint stereo
Codec ID : 55
Codec ID/Hint : MP3
Duration : 8 min 42 s
Bit rate mode : Constant
Bit rate : 320 kb/s
Channel(s) : 2 channels
Sampling rate : 44.1 kHz
Compression mode : Lossy
Stream size : 19.9 MiB (15%)
Alignment : Split accross interleaves
Interleave, duration : 40 ms (1.00 video frame)
Interleave, preload duration : 500 ms

Скриншот c названием фильма

Скриншоты

rutracker.org/forum/viewtopic.php?t=5308891

Если ваш рейтинг упадет ниже 0,3, вы не сможете скачивать торренты! Подробнее о рейтинге.

[asmlocator.ru].t300589.torrent 
Торрент: Зарегистрирован [ 2017-01-05 08:45 ] · 31CB51FDDCA24A19B77EF220FA6C71FA4512985C

Скачать .torrent

Скачать

613 B

Статус: проверено
Скачан: 0 раз
Размер: 134 MB
terms.php
[Профиль] [ЛС]
Показать сообщения:    
Ответить на тему

Текущее время: 28-Май 12:20

Часовой пояс: UTC ± 0



Вы не можете начинать темы
Вы не можете отвечать на сообщения
Вы не можете редактировать свои сообщения
Вы не можете удалять свои сообщения
Вы не можете голосовать в опросах
Вы не можете прикреплять файлы к сообщениям
Вы можете скачивать файлы