Люми (Владимир Брагин) [1991, ужасы, триллер, DVDRip-AVC]

Ответить на тему
Статистика раздачи
Размер:  1,46 GB   |    Зарегистрирован:  4 месяца 20 дней   |    Скачан:  0 раз

Полного источника не было: Никогда

 
   
 
 
Автор Сообщение

star21 ®

Пол: Не указан

Стаж: 1 год 6 месяцев

Сообщений: 299355

Создавать темы 04-Янв-2017 20:05

[Цитировать]

Люми
Жанр: ужасы, триллер
Год выпуска: 1991
Продолжительность: 01:28:14
-
Режиссёр: Владимир Брагин
В ролях: Андрей Щербович-Вечер, Вита Гребнева, Надежда Бутырцева, Александр Потапов, Алексей Селивёрстов, Капитолина Ильенко, Александр Мохов, Алексей Малюков, Владимир Белоусов, Юрий Сенкевич
-
Описание: Полуволк-получеловек более двух метров роста, он появляется один раз в сто лет. Движимый голосом предков, оборотень идет к намеченной цели, не зная пощады, сметая всех на своем пути…
-
Доп. информация: Оборотня-великана играли два актера — один садился другому на плечи.
-
Сэмпл: http://sendfile.su/1231496
-
Качество видео: DVDRip-AVC (DVD5/alex.us)
Формат видео: MKV
Видео: 698x572 (4:3) @ 744x572, 25 fps, AVC, ~2 140 Kbps, 0.214 bits/pixel
Аудио: 48 kHz, AC3 Dolby Digital, 2/0 (L,R) ch, ~224 kbps

MediaInfo

x264 [info]: frame I:854 Avg QP:16.75 size: 44534
x264 [info]: frame P:27279 Avg QP:19.14 size: 19924
x264 [info]: frame B:104217 Avg QP:21.37 size: 8008-General
Unique ID : 210665155755830308172460320348560679971 (0x9E7CA2177D36B2B9B783D8AE5087E423)
Complete name : C:\Users\ALEX\Downloads\Фильмы\Люми.1991.DVDRip-AVC.x264.AC3.mkv
Format : Matroska
Format version : Version 4 / Version 2
File size : 1.46 GiB
Duration : 1h 28mn
Overall bit rate : 2 366 Kbps
Encoded date : UTC 2016-05-06 16:15:18
Writing application : mkvmerge v8.5.2 ('Crosses') 64bit
Writing library : libebml v1.3.3 + libmatroska v1.4.4
Video
ID : 1
Format : AVC
Format/Info : Advanced Video Codec
Format profile : High@L4.1
Format settings, CABAC : Yes
Format settings, ReFrames : 14 frames
Codec ID : V_MPEG4/ISO/AVC
Duration : 1h 28mn
Bit rate : 2 140 Kbps
Width : 698 pixels
Height : 572 pixels
Display aspect ratio : 4:3
Frame rate mode : Constant
Frame rate : 25.000 fps
Color space : YUV
Chroma subsampling : 4:2:0
Bit depth : 8 bits
Scan type : Progressive
Bits/(Pixel*Frame) : 0.214
Stream size : 1.32 GiB (90%)
Title : Люми
Writing library : x264 core 148 r2638 7599210
Encoding settings : cabac=1 / ref=14 / deblock=1:-2:-1 / analyse=0x3:0x113 / me=umh / subme=11 / psy=1 / psy_rd=1.00:0.10 / mixed_ref=1 / me_range=32 / chroma_me=1 / trellis=2 / 8x8dct=1 / cqm=0 / deadzone=21,11 / fast_pskip=0 / chroma_qp_offset=-3 / threads=6 / lookahead_threads=1 / sliced_threads=0 / nr=0 / decimate=1 / interlaced=0 / bluray_compat=0 / constrained_intra=0 / bframes=12 / b_pyramid=2 / b_adapt=2 / b_bias=0 / direct=3 / weightb=1 / open_gop=0 / weightp=2 / keyint=250 / keyint_min=25 / scenecut=40 / intra_refresh=0 / rc=2pass / mbtree=0 / bitrate=2140 / ratetol=1.0 / qcomp=0.60 / qpmin=0 / qpmax=69 / qpstep=4 / cplxblur=20.0 / qblur=0.5 / ip_ratio=1.40 / pb_ratio=1.30 / aq=1:1.00
Language : Russian
Default : Yes
Forced : No
Audio
ID : 2
Format : AC-3
Format/Info : Audio Coding 3
Mode extension : CM (complete main)
Format settings, Endianness : Big
Codec ID : A_AC3
Duration : 1h 28mn
Bit rate mode : Constant
Bit rate : 224 Kbps
Channel(s) : 2 channels
Channel positions : Front: L R
Sampling rate : 48.0 KHz
Frame rate : 31.250 fps (1536 spf)
Compression mode : Lossy
Stream size : 141 MiB (9%)
Title : Original
Language : Russian
Default : Yes
Forced : No

Скриншоты

Если ваш рейтинг упадет ниже 0,3, вы не сможете скачивать торренты! Подробнее о рейтинге.

[asmlocator.ru].t300581.torrent 
Торрент: Зарегистрирован [ 2017-01-04 20:05 ] · 9DA64F676DF2A0001470EBD3D010EC765C66C41B

Скачать .torrent

Скачать

15 KB

Статус: проверено
Скачан: 0 раз
Размер: 1,46 GB
terms.php
[Профиль] [ЛС]
Показать сообщения:    
Ответить на тему

Текущее время: 25-Май 10:36

Часовой пояс: UTC ± 0



Вы не можете начинать темы
Вы не можете отвечать на сообщения
Вы не можете редактировать свои сообщения
Вы не можете удалять свои сообщения
Вы не можете голосовать в опросах
Вы не можете прикреплять файлы к сообщениям
Вы можете скачивать файлы