Белые цыпочки / White Chicks (Кинен Айвори Уайанс / Keenen Ivory Wayans) [2004, США, комедия, криминал, VHSRip] [Fullscreen] Dub (Видеосервис)

Ответить на тему
Статистика раздачи
Размер:  1,37 GB   |    Зарегистрирован:  2 месяца 20 дней   |    Скачан:  0 раз

Полного источника не было: Никогда

 
   
 
 
Автор Сообщение

star21 ®

Пол: Не указан

Стаж: 1 год 4 месяца

Сообщений: 300211

Создавать темы 03-Янв-2017 17:25

[Цитировать]

Белые цыпочки / White Chicks
«Они зайдут далеко. Дальше некуда»
[Full Screen]
Страна: США
Жанр: комедия, криминал
Год выпуска: 2004
Продолжительность: 01:44:14
Перевод: Профессиональный (дублированный) Видеосервис
Cубтитры: нет
Режиссер: Кинен Айвори Уайанс / Keenen Ivory Wayans
В ролях: Шон Уайанс, Марлон Уайанс, Джейми Кинг, Фрэнки Фэйзон, Локлин Манро, Джон Хёрд, Бизи Филиппс, Терри Крюс, Бриттани Дэниэл, Эдди Велес
Описание: Изрядно проштрафившиеся агенты ФБР (братья афро-американцы) решают обелить себя перед руководством. Причем как в переносном, так и в прямом смыслах. Их миссией становится защита двух сестер Уилтон, наследниц огромной гостиничной империи, от похищения во время их переезда из нью-йоркского аэропорта в отель Хэмптонс.
Вновь переоценив свои способности, братья придумывают новый бредовый план – спрятать сестер в укромном месте, а самим переодеться и загримироваться в них, благо приезжих миллионерш в лицо мало кто знает.
Все, что им теперь осталось сделать – убедить весь остальной мир (включая остальных сотрудников ФБР, «охраняющих» их, а также всех родных и близких сестер Уилтон) в том, что они действительно молодые, богатые бледнолицые миллионерки. Проколы и приколы подобное развитие событий вполне предусматривает…
Доп. информация: Оцифровка лицензионной VHS (личный архив) и получение VHSRip alenavova
Эксклюзив для rutracker.org. При размещении данного релиза на других сайтах ссылка на автора alenavova обязательна.

Релиз
Сэмпл: https://yadi.sk/i/a8m2jcYCrFsca
Качество видео: VHSRip
Формат видео: AVI
Видео: 704x528 (1.33:1), 25 fps, XviD build 73 ~1675 kbps avg, 0.18 bit/pixel
Аудио: 48 kHz, AC3 Dolby Digital, 2/0 (L,R) ch, ~192 kbps

MediaInfo

Белые цыпочки - White Chicks [by alenavova].avi
Format : AVI
Format/Info : Audio Video Interleave
File size : 1.37 GiB
Duration : 1h 44mn
Overall bit rate : 1 877 Kbps
Movie name : Белые цыпочки - White Chicks [by alenavova]
Director : by alenavova
Writing application : VirtualDubMod 1.5.10.3 | www.virtualdub-fr.org || (build 2550/release)
Copyright : Edich2
Comment : RuTracker.org
Video
ID : 0
Format : MPEG-4 Visual
Format profile : Advanced Simple@L5
Format settings, BVOP : 2
Format settings, QPel : No
Format settings, GMC : No warppoints
Format settings, Matrix : Custom
Codec ID : XVID
Codec ID/Hint : XviD
Duration : 1h 44mn
Bit rate : 1 676 Kbps
Width : 704 pixels
Height : 528 pixels
Display aspect ratio : 4:3
Frame rate : 25.000 fps
Color space : YUV
Chroma subsampling : 4:2:0
Bit depth : 8 bits
Scan type : Progressive
Compression mode : Lossy
Bits/(Pixel*Frame) : 0.180
Stream size : 1.22 GiB (89%)
Writing library : XviD 73
Audio
ID : 1
Format : AC-3
Format/Info : Audio Coding 3
Mode extension : CM (complete main)
Format settings, Endianness : Big
Codec ID : 2000
Duration : 1h 44mn
Bit rate mode : Constant
Bit rate : 192 Kbps
Channel(s) : 2 channels
Channel positions : Front: L R
Sampling rate : 48.0 KHz
Frame rate : 31.250 fps (1536 spf)
Compression mode : Lossy
Stream size : 143 MiB (10%)
Alignment : Split accross interleaves
Interleave, duration : 40 ms (1.00 video frame)
Interleave, preload duratio : 500 ms

Скриншоты


Если ваш рейтинг упадет ниже 0,3, вы не сможете скачивать торренты! Подробнее о рейтинге.

[asmlocator.ru].t299985.torrent 
Торрент: Зарегистрирован [ 2017-01-03 17:25 ] · 8AFFCF237590F19F0BEE381F9F023B770FF467DA

Скачать .torrent

Скачать

14 KB

Статус: проверено
Скачан: 0 раз
Размер: 1,37 GB
terms.php
[Профиль] [ЛС]
Показать сообщения:    
Ответить на тему

Текущее время: 24-Мар 15:58

Часовой пояс: UTC ± 0



Вы не можете начинать темы
Вы не можете отвечать на сообщения
Вы не можете редактировать свои сообщения
Вы не можете удалять свои сообщения
Вы не можете голосовать в опросах
Вы не можете прикреплять файлы к сообщениям
Вы можете скачивать файлы