Сестра Кенни / Sister Kenny (Дадли Николс / Dudley Nichols) [1946, США, драма, DVDRip] VO (Юрий Медведев) + Original Eng

Ответить на тему
Статистика раздачи
Размер:  1,61 GB   |    Зарегистрирован:  3 месяца 21 день   |    Скачан:  0 раз

Полного источника не было: 1 месяц 18 дней

 
   
 
 
Автор Сообщение

star21 ®

Пол: Не указан

Стаж: 1 год 5 месяцев

Сообщений: 300211

Создавать темы 03-Янв-2017 06:40

[Цитировать]

Сестра Кенни / Sister Kenny
Страна: США
Студия: RKO Radio Pictures Inc.
Жанр: драма
Год выпуска: 1946
Продолжительность: 01:56:25
Перевод: Одноголосый закадровый - Юрий Медведев
Cубтитры: нет
Оригинальная аудиодорожка: английский
Режиссер: Дадли Николс / Dudley Nichols
В ролях: Розалинд Расселл / Rosalind Russell ... Elizabeth Kenny
Александр Нокс / Alexander Knox ... Dr. McDonnell
Дин Джэггер / Dean Jagger ... Kevin Connors
Филип Меривэйл / Philip Merivale ... Dr. Brack
Бьюла Бонди / Beulah Bondi ... Mary Kenny
Чарльз Дингл / Charles Dingle ... Michael Kenny
Джон Лител / John Litel ... Medical Director
Дорин МакКанн / Doreen McCann ... Dorrie
Фэй Хельм / Fay Helm ... Mrs. McIntyre
Чарльз Кемпер / Charles Kemper ... Mr. McIntyre
Дороти Петерсон / Dorothy Peterson ... Agnes
Гертруда Эстор / Gertrude Astor ... Doctor, в титрах не указана
Уолтер Болдуин / Walter Baldwin ... Mr. Ferguson, в титрах не указан

Описание: Сестра милосердия Элизабет Кенни во время пребывания в австралийском буше обнаруживает революционный способ лечения полиомелита. Девушка пытается добиться признания этого метода в научном сообществе, но никак не может получить официальное признание своей теории. Более трех десятков лет сестра Кенни борется за правду. Она упорно отказывает своему жениху в свадьбе и лишает себя нормальной жизни. Медсестра не имеет возможности лечить острые случаи полиомелита с помощью своего метода, а научное общество высмеивает ее. Все же главная цель Элизабет Кенни - спасти как можно больше человеческих жизней.
Оскар, 1947 год
Номинации (1):
Лучшая женская роль (Розалинд Расселл)
Золотой глобус, 1947 год
Победитель (1):
Лучшая женская роль ( Розалинд Расселл )
Дополнительная информация:
- Известно, что среди пациентов Элизабет Кенни был племянник Розалинд Расселл. Скорее всего именно поэтому актриса согласилась сыграть роль Элизабет Кенни.--БОЛЬШОЕ СПАСИБО:
Работа со звуком и реавторинг DVD - rjhlb777
Перевод и озвучивание фильма - Юрий Медведев
Также Большое Спасибо всем, кто принял участие в появлении озвучки к этому фильму:
Lafajet, Магда, jasenka, елена 22, yanaelisa, old76, HippopotamusIV, voostorg, Ugo927, leoder, mumzik69, sapog1960, spartakeynoir, mangust1, борюська, BaluBaly, surzhoks
--Сэмпл: http://multi-up.com/1122691
Качество видео: DVDRip
Формат видео: AVI
Видео: XviD, 624x480 (1.30:1), 23.976 fps, 1590 Kbps
Аудио 1: AC3, 48.0 KHz, 2 ch., 192 Kbps (русский одноголосый закадровый перевод) - Юрий Медведев
Аудио 2: AC3, 48.0 KHz, 2 ch., 192 Kbps (оригинальная английская звуковая дорожка, лежит отдельно)
Как подключить альтернативную (внешнюю) звуковую дорожку к видео при просмотре?
Как добавить отдельно лежащую аудиодорожку в .avi - файл? (см. "Программы для работы с контейнерами" - > "VirtualDub" или "AVI-Mux")

MediaInfo

AVI-файл:
Общее
Полное имя : J:\раздачи\Sister Kenny 1946\Sister Kenny.avi
Формат : AVI
Формат/Информация : Audio Video Interleave
Размер файла : 1,46 Гбайт
Продолжительность : 1 ч. 56 м.
Общий поток : 1791 Кбит/сек
Программа кодирования : VirtualDubMod 1.5.10.3 | www.virtualdub-fr.org || (build 2550/release)
Библиотека кодирования : VirtualDubMod build 2550/release
Видео
Идентификатор : 0
Формат : MPEG-4 Visual
Профиль формата : Advanced Simple@L5
Параметр BVOP формата : 2
Параметр QPel формата : Нет
Параметр GMC формата : Без точки перехода
Параметр матрицы формата : Default (H.263)
Идентификатор кодека : DX50
Идентификатор кодека/Подсказка : DivX 5
Продолжительность : 1 ч. 56 м.
Битрейт : 1590 Кбит/сек
Ширина : 624 пикселя
Высота : 480 пикселей
Соотношение сторон : 4:3
Частота кадров : 23,976 кадра/сек
Цветовое пространство : YUV
Субдискретизация насыщенности : 4:2:0
Битовая глубина : 8 бит
Тип развёртки : Прогрессивная
Метод сжатия : С потерями
Бит/(Пиксели*Кадры) : 0.221
Размер потока : 1,29 Гбайт (89%)
Библиотека кодирования : XviD 73
Аудио
Идентификатор : 1
Формат : AC-3
Формат/Информация : Audio Coding 3
Расширение режима : CM (complete main)
Параметр Endianness формата : Big
Идентификатор кодека : 2000
Продолжительность : 1 ч. 56 м.
Вид битрейта : Постоянный
Битрейт : 192 Кбит/сек
Каналы : 2 канала
Расположение каналов : Front: L R
Частота : 48,0 КГц
Битовая глубина : 16 бит
Метод сжатия : С потерями
Размер потока : 160 Мбайт (11%)
Выравнивание : Разделение по промежуткам
Продолжительность промежутка : 42 мс. (1,00 видеокадр)
Время предзагрузки промежутка : 500 мс.
английская оригинальная звуковая дорожка, лежит отдельно:
Общее
Полное имя : J:\раздачи\Sister Kenny 1946\Sister Kenny.ENG.ac3
Формат : AC-3
Формат/Информация : Audio Coding 3
Размер файла : 160 Мбайт
Продолжительность : 1 ч. 56 м.
Режим общего битрейта : Постоянный
Общий поток : 192 Кбит/сек
Аудио
Формат : AC-3
Формат/Информация : Audio Coding 3
Расширение режима : CM (complete main)
Параметр Endianness формата : Big
Продолжительность : 1 ч. 56 м.
Вид битрейта : Постоянный
Битрейт : 192 Кбит/сек
Каналы : 2 канала
Расположение каналов : Front: L R
Частота : 48,0 КГц
Битовая глубина : 16 бит
Метод сжатия : С потерями
Размер потока : 160 Мбайт (100%)

Если ваш рейтинг упадет ниже 0,3, вы не сможете скачивать торренты! Подробнее о рейтинге.

[asmlocator.ru].t299670.torrent 
Торрент: Зарегистрирован [ 2017-01-03 06:40 ] · 4CF2A8FA2383228E90A5A757DEBF3D5E2C0CEBB7

Скачать .torrent

Скачать

17 KB

Статус: проверено
Скачан: 0 раз
Размер: 1,61 GB
terms.php
[Профиль] [ЛС]
Показать сообщения:    
Ответить на тему

Текущее время: 25-Апр 04:33

Часовой пояс: UTC ± 0



Вы не можете начинать темы
Вы не можете отвечать на сообщения
Вы не можете редактировать свои сообщения
Вы не можете удалять свои сообщения
Вы не можете голосовать в опросах
Вы не можете прикреплять файлы к сообщениям
Вы можете скачивать файлы